Login
Username:
Password:
[Signup]
[Recover Account]


Browse Torrents

Poll


You must be logged in to view polls



Latest Torrents
Baptiste.S01E01.HD...
- [Size: 274.53 MB]

Kursk.2019.HC.HDRi...
- [Size: 1.05 GB]

Evil.Lives.Here.S0...
- [Size: 220.93 MB]

Call.The.Midwife.S...
- [Size: 339.36 MB]

Call.The.Midwife.S...
- [Size: 340.85 MB]


Torrent Details For "The Indian Fighter 1955 hevc-d3g."

The Indian Fighter 1955 hevc-d3g.

Download this torrent | Magnet Download
Health:
Seeds: 0
Leechers: 17
Completed:
Last Checked: 21-01-2019 07:13:16
External Torrent
Update Stats



Images Host

Poster
No poster


iMDB
Imdb Picture Title: The Indian Fighter
Year: 1955
Runtime: 88 minutes
Votes: 1531
Rating: 6.4/10
Language: English
Country: USA
All Genres: Western
Plot Outline: A scout leading a wagon train through hostile Indian country unwittingly gets involved with a Sioux chief's daughter.
Tagline: The Indian Fighter and the Girl...a love as fierce as a fire arrow!
Director: André De Toth
Writing By: Robert L. Richards,Frank Davis,Ben Hecht,
Produced By: Samuel P. Norton,William Schorr,Kirk Douglas,
Music: Franz Waxman
Plot:

Johnny Hawks, a former Indian fighter, returns to the West after the Civil War. He reacquaints himself with the Indian band led by Red Cloud. Red Cloud's beautiful daughter has now grown into womanhood... Unscrupulous whisky traders are after the gold on Indian land. Hawks averts serious bloodshed by convincing Red Cloud to make a treaty... Hawks leads an Oregon-bound wagon train through Indian territory. When he slips away to see the chief's daughter, trouble between braves and whisky traders flares up anew, putting the wagon train and the nearby fort in peril...

- Written by David Woodfield

At the end of the US Civil War, Johnny Hawks returns and tries to re-start his life. He was once a renowned Indian fighter but had made peace with the Sioux and had become friendly with the Chief, Red Cloud. His immediate task is to lead an Oregon-bound wagon train through Sioux territory but there are some among the settlers who have heard of a gold mine and will go to any lengths to find it. Every time Hawks thinks he has arranged a peace two men in particular, Wes Todd and another named Chivington seem to make it impossible to keep the peace. Hawks also finds that the Chief's daughter, Ohnahti, has grown into a beautiful woman. Despite Hawks' best efforts, war seems inevitable.

- Written by garykmcd

A scout leading a wagon train through hostile Indian country unwittingly gets involved with a Sioux chief's daughter.

- Written by <[email protected]>
Cast:
Kirk Douglas as Johnny Hawks
Elsa Martinelli as Onahti
Walter Matthau as Wes Todd
Diana Douglas as Susan Rogers
Walter Abel as Captain Trask
Lon Chaney Jr. as Chivington
Eduard Franz as Red Cloud
Alan Hale Jr. as Will Crabtree
Elisha Cook Jr. as Briggs
Ray Teal as Morgan


Watch-Free-HD     Download

Details
Name:The Indian Fighter 1955 hevc-d3g.
Description:
The Indian Fighter 1955 hevc-d3g.

ImDb: http://www.imdb.com/title/tt0048204



Complete name : The Indian Fighter 1955 BluRay 1080p AC3-2 H265-d3g.mkv
Format : Matroska
Format version : Version 4 / Version 2
File size : 1.27 GiB
Duration : 1 h 28 min
Overall bit rate : 2 065 kb/s
Movie name : The Indian Fighter 1955 BluRay 1080p AC3-2 H265-d3g
Encoded date : UTC 2017-08-05 03:28:56
Writing application : DVDFab 10.0.4.9
Writing library : libebml v1.3.4 + libmatroska v1.4.5

Video
ID : 1
Format : HEVC
Format/Info : High Efficiency Video Coding
Format profile : [email protected]@Main
Codec ID : V_MPEGH/ISO/HEVC
Duration : 1 h 28 min
Bit rate : 1 866 kb/s
Width : 1 920 pixels
Height : 812 pixels
Display aspect ratio : 2.35:1
Frame rate mode : Constant
Frame rate : 23.976 (24000/1001) FPS
Color space : YUV
Chroma subsampling : 4:2:0 (Type 1 / Type 0)
Bit depth : 8 bits
Bits/(Pixel*Frame) : 0.050
Stream size : 1.15 GiB (90%)
Default : Yes
Forced : No
Color range : Full
Color primaries : BT.709
Transfer characteristics : BT.709
Matrix coefficients : BT.709

Audio
ID : 2
Format : AC-3
Format/Info : Audio Coding 3
Format settings, Endianness : Big
Codec ID : A_AC3
Duration : 1 h 28 min
Bit rate mode : Constant
Bit rate : 192 kb/s
Channel(s) : 2 channels
Channel positions : Front: L R
Sampling rate : 48.0 kHz
Frame rate : 31.250 FPS (1536 spf)
Bit depth : 16 bits
Compression mode : Lossy
Stream size : 121 MiB (9%)
Language : English
Service kind : Complete Main
Default : Yes
Forced : No

Text
ID : 3
Format : VobSub
Codec ID : S_VOBSUB
Codec ID/Info : Picture based subtitle format used on DVDs
Duration : 1 h 24 min
Bit rate : 5 421 b/s
Count of elements : 747
Stream size : 3.27 MiB (0%)
Language : English
Default : No
Forced : No

Menu
00:00:00.000 : en:(01)00:00:00:000
00:10:29.795 : en:(02)00:10:29:795
00:20:19.134 : en:(03)00:20:19:134
00:27:04.539 : en:(04)00:27:04:539
00:35:54.610 : en:(05)00:35:54:610
00:48:31.783 : en:(06)00:48:31:783
00:59:37.115 : en:(07)00:59:37:115
01:16:07.104 : en:(08)01:16:07:104





 http://www.sparrowpics.com/image/9Umas
 http://www.sparrowpics.com/image/9Uvjf
 http://www.sparrowpics.com/image/9UQJ5[/center]
Category:Movies > HEVC
Lang:English  English
Total Size:1.27 GB
Info Hash:210f798f1890cb88a7d6a060051eb09d6e37a05d
Added By:Shrawankk
Date Added:06-08-2017 03:05:03
Downloads:347

Ratings:Not Yet Rated (Log in to rate it)


Tracker:
http://bigfoot1942.sektori.org:6969/announce

This Torrent also has backup trackers
URLSeedersLeechersCompleted
http://bigfoot1942.sektori.org:6969/announce000
http://tracker2.wasabii.com.tw:6969/announce000
http://bt.artvid.ru:6969/announce010
http://tracker.opentrackr.org/announce000
http://announce.torrentsmd.com:6969/announce000
http://tracker.trackerfix.com/announce000
http://tracker.opentrackr.org/announce000


File List: 


Comments

No comments still posted

Top
Copyright 2018 DownloadHD -|- Page Generated In 0.651038 secs.
-|- RSS Feed -|- Feed Info