Login
Username:
Password:
[Signup]
[Recover Account]


Browse Torrents

Poll


You must be logged in to view polls



Latest Torrents
Crucible.of.the.Va...
- [Size: 1.39 GB]

Real.Time.With.Bil...
- [Size: 1,014.34 MB]

Chaamp 2017 1080p ...
- [Size: 3.93 GB]

Journal.64.2018.DA...
- [Size: 8.74 GB]

K.G.F Chapter 1 20...
- [Size: 883.60 MB]


Torrent Details For "Guardians of the Galaxy Vol 2 2017 1080p WEBRip x264 Multi Audio [Hindi+Tamil+Telugu+English] {..."

Guardians of the Galaxy Vol 2 2017 1080p WEBRip x264 Multi Audio [Hindi+Tamil+Telugu+English] {...

Download this torrent | Magnet Download
Health:
Seeds: 0
Leechers: 5
Completed: 39,912 
Last Checked: 23-12-2018 20:38:11
External Torrent
Update Stats



Images Host

Poster


iMDB
Imdb Picture Title: Guardians of the Galaxy Vol. 2
Year: 2017
Runtime: 136 minutes
Votes: 54102
Rating: 8.2/10
Language: English
Country: USA
All Genres: Action, Adventure, Sci-Fi
Plot Outline: Set to the backdrop of Awesome Mixtape #2, 'Guardians of the Galaxy Vol. 2' continues the team's adventures as they unravel the mystery of Peter Quill's true parentage.
Tagline: You only get one chance to save the galaxy twice.
Director: James Gunn
Writing By: James Gunn,Dan Abnett,Andy Lanning,Steve Englehart,Steve Gan,Jim Starlin,Stan Lee,Larry Lieber,Jack Kirby,Bill Mantlo,Keith Giffen,
Produced By: Victoria Alonso,Louis D'Esposito,Kevin Feige,David J. Grant,Simon Hatt,Nikolas Korda,Stan Lee,Jonathan Schwartz,Lars P. Winther,
Music: Tyler Bates
Plot:

Set to the backdrop of 'Awesome Mixtape #2,' Marvel's Guardians of the Galaxy Vol. 2 continues the team's adventures as they traverse the outer reaches of the cosmos. The Guardians must fight to keep their newfound family together as they unravel the mysteries of Peter Quill's true parentage. Old foes become new allies and fan-favorite characters from the classic comics will come to our heroes' aid as the Marvel cinematic universe continues to expand.

- Written by Marvel Studios

Set to the backdrop of Awesome Mixtape #2, 'Guardians of the Galaxy Vol. 2' continues the team's adventures as they unravel the mystery of Peter Quill's true parentage.

- Written by Marvel Studios
Cast:
Chris Pratt as Peter Quill / Star-Lord
Zoe Saldana as Gamora
Dave Bautista as Drax
Vin Diesel as Baby Groot
Bradley Cooper as Rocket
Michael Rooker as Yondu
Karen Gillan as Nebula
Pom Klementieff as Mantis
Sylvester Stallone as Stakar Ogord
Kurt Russell as Ego
Trailers:
Trailer #2
Big Game Spot
Teaser Trailer
Sneak Peek


Watch-Free-HD     Download

Details
Name:Guardians of the Galaxy Vol 2 2017 1080p WEBRip x264 Multi Audio [Hindi+Tamil+Telugu+English] {...
Description:


Guardians of the Galaxy Vol 2 2017 1080p WEBRip x264 Multi Audio [Hindi+Tamil+Telugu+English] {Clean Cam} MAVI Team EDM


 IMDB Link

 Join Us Now

[url=Clean Cam Team tr Thanks]Clean Cam Team tr Thanks[/url]

[url=Sample Include in torrent]Sample Include in torrent[/url]

Video
ID                          : 1
Format                      : AVC
Format/Info                 : Advanced Video Codec
Format profile              : [email protected]
Format settings, CABAC      : Yes
Format settings, RefFrames  : 5 frames
Codec ID                    : V_MPEG4/ISO/AVC
Duration                    : 2 h 16 min
Bit rate                    : 2 199 kb/s
Width                       : 1 920 pixels
Height                      : 804 pixels
Display aspect ratio        : 2.40:1
Frame rate mode             : Constant
Frame rate                  : 24.000 FPS
Color space                 : YUV
Chroma subsampling          : 4:2:0
Bit depth                   : 8 bits
Scan type                   : Progressive
Bits/(Pixel*Frame)          : 0.059
Stream size                 : 2.09 GiB (81%)
Default                     : Yes
Forced                      : No

Audio #1
ID                          : 2
Format                      : MPEG Audio
Format version              : Version 1
Format profile              : Layer 3
Mode                        : Joint stereo
Mode extension              : MS Stereo
Codec ID                    : A_MPEG/L3
Codec ID/Hint               : MP3
Duration                    : 2 h 15 min
Bit rate mode               : Variable
Bit rate                    : 122 kb/s
Nominal bit rate            : 128 kb/s
Channel(s)                  : 2 channels
Sampling rate               : 44.1 kHz
Frame rate                  : 38.281 FPS (1152 SPF)
Compression mode            : Lossy
Stream size                 : 118 MiB (4%)
Title                       : Hindi
Writing library             : LAME3.99r
Encoding settings           : -m j -V 4 -q 3 -lowpass 17 --abr 128
Language                    : Hindi
Default                     : No
Forced                      : No

Audio #2
ID                          : 3
Format                      : AAC
Format/Info                 : Advanced Audio Codec
Format profile              : HE-AAC / LC
Codec ID                    : A_AAC
Duration                    : 2 h 15 min
Bit rate                    : 192 kb/s
Channel(s)                  : 6 channels
Channel positions           : Front: L C R, Side: L R, LFE
Sampling rate               : 48.0 kHz / 24.0 kHz
Frame rate                  : 23.438 FPS (1024 SPF)
Compression mode            : Lossy
Delay relative to video     : 31 ms
Stream size                 : 184 MiB (7%)
Title                       : Eng
Language                    : English
Default                     : Yes
Forced                      : No

Audio #3
ID                          : 4
Format                      : MPEG Audio
Format version              : Version 1
Format profile              : Layer 3
Mode                        : Joint stereo
Mode extension              : MS Stereo
Codec ID                    : A_MPEG/L3
Codec ID/Hint               : MP3
Duration                    : 2 h 15 min
Bit rate mode               : Variable
Bit rate                    : 106 kb/s
Nominal bit rate            : 128 kb/s
Channel(s)                  : 2 channels
Sampling rate               : 48.0 kHz
Frame rate                  : 41.667 FPS (1152 SPF)
Compression mode            : Lossy
Stream size                 : 103 MiB (4%)
Title                       : Tamil
Writing library             : LAME3.99r
Encoding settings           : -m j -V 4 -q 3 -lowpass 17 --abr 128
Language                    : Tamil
Default                     : No
Forced                      : Yes

Audio #4
ID                          : 5
Format                      : MPEG Audio
Format version              : Version 1
Format profile              : Layer 3
Mode                        : Joint stereo
Mode extension              : MS Stereo
Codec ID                    : A_MPEG/L3
Codec ID/Hint               : MP3
Duration                    : 2 h 15 min
Bit rate mode               : Variable
Bit rate                    : 107 kb/s
Nominal bit rate            : 128 kb/s
Channel(s)                  : 2 channels
Sampling rate               : 44.1 kHz
Frame rate                  : 38.281 FPS (1152 SPF)
Compression mode            : Lossy
Stream size                 : 104 MiB (4%)
Title                       : Telugu
Writing library             : LAME3.99r
Encoding settings           : -m j -V 4 -q 3 -lowpass 17 --abr 128
Language                    : Telugu
Default                     : No
Forced                      : No

Text
ID                          : 6
Format                      : UTF-8
Codec ID                    : S_TEXT/UTF8
Codec ID/Info               : UTF-8 Plain Text
Duration                    : 2 h 14 min
Bit rate                    : 47 b/s
Count of elements           : 1579
Stream size                 : 46.7 KiB (0%)
Title                       : Subtitle
Language                    : English
Default                     : Yes
Forced                      : No


 
 
 
 
 
 
 
 

Category:Movies > Hollywood Dub
Lang:Hindi
Total Size:2.62 GB
Info Hash:165f32592cf2184d8649e8eabb5b1d6ff95b396c
Added By:Sup2425
Date Added:08-08-2017 04:32:17
Downloads:734

Ratings:Not Yet Rated (Log in to rate it)


Tracker:
udp://tracker.openbittorrent.com:80/announce


File List: 


Comments

No comments still posted

Top
Copyright 2018 DownloadHD -|- Page Generated In 1.258711 secs.
-|- RSS Feed -|- Feed Info