Login
Username:
Password:
[Signup]
[Recover Account]


Browse Torrents

Poll


You must be logged in to view polls



Latest Torrents
From.Straight.as.t...
- [Size: 896.22 MB]

Cheater 2016 Marat...
- [Size: 2.59 GB]

Live.PD.S03E45.HDT...
- [Size: 1.75 GB]

Overlord.2018.INTE...
- [Size: 18.67 GB]

Crucible.of.the.Va...
- [Size: 1.33 GB]


Torrent Details For "Death.Note.Light.Up.the.New.World.2016.JAPANESE.1080p.BluRay.REMUX.AVC.DTS-HD.MA.5.1-FGT"

Death.Note.Light.Up.the.New.World.2016.JAPANESE.1080p.BluRay.REMUX.AVC.DTS-HD.MA.5.1-FGT

Download this torrent | Magnet Download
Health:
Seeds: 0
Leechers: 18
Completed:
Last Checked: 06-01-2019 14:32:18
External Torrent
Update Stats



Images Host

Poster


iMDB
Imdb Picture Original Title: Desu nôto: Light Up the New World
Title: Death Note: Light Up the New World
Year: 2016
Runtime: 135 minutes
Votes: 516
Rating: 6.2/10
Language: Japanese
Country: Japan
All Genres: Crime, Drama, Horror, Sci-Fi, Thriller
Plot Outline: An update to the "Death Note" series in which a mysterious notebook contains deadly powers.
Director: Shinsuke Sato
Writing By: Takeshi Obata,Tsugumi Ohba,
Produced By: Takahiro Satô,
Music: Yutaka Yamada
Plot:

An update to the "Death Note" series in which a mysterious notebook contains deadly powers.

- Written by Anonymous
Cast:
Tatsuya Fujiwara as Light Yagami
Ken'ichi Matsuyama as L
Sôsuke Ikematsu as Ryuzaki
Erika Toda as Misa Amane
Noémie Nakai as J
Masaki Suda as Yugi Shion
Masahiro Higashide as Tsukuru Mishima
Mina Fujii as Sho Nanase
Sergey Kuvaev as Roger Irving
Rina Kawaei as Sakura Aoi


Watch-Free-HD     Download

Details
Name:Death.Note.Light.Up.the.New.World.2016.JAPANESE.1080p.BluRay.REMUX.AVC.DTS-HD.MA.5.1-FGT
Description:
MediaInfo

Video
ID                                       : 1
Format                                   : AVC
Format/Info                              : Advanced Video Codec
Format profile                           : [email protected]
Format settings, CABAC                   : Yes
Format settings, ReFrames                : 4 frames
Codec ID                                 : V_MPEG4/ISO/AVC
Duration                                 : 2h 14mn
Bit rate mode                            : Variable
Nominal bit rate                         : 14.0 Mbps
Maximum bit rate                         : 35.0 Mbps
Width                                    : 1 920 pixels
Height                                   : 1 080 pixels
Display aspect ratio                     : 16:9
Frame rate mode                          : Constant
Frame rate                               : 24.000 fps
Standard                                 : Component
Color space                              : YUV
Chroma subsampling                       : 4:2:0
Bit depth                                : 8 bits
Scan type                                : Progressive
Bits/(Pixel*Frame)                       : 0.281
Title                                    : Death.Note.Light.Up.the.New.World.2016.JAPANESE.1080p.BluRay.REMUX.AVC.DTS-HD.MA.5.1-FGT
Writing library                          : x264 core 148
Encoding settings                        : cabac=1 / ref=4 / deblock=1:0:0 / analyse=0x3:0x113 / me=hex / subme=7 / psy=1 / psy_rd=1.00:0.00 / mixed_ref=1 / me_range=16 / chroma_me=1 / trellis=1 / 8x8dct=1 / cqm=1 / deadzone=21,11 / fast_pskip=1 / chroma_qp_offset=-2 / threads=12 / lookahead_threads=2 / sliced_threads=0 / slices=4 / nr=0 / decimate=1 / interlaced=0 / minigop=1 / stitchable=1 / constrained_intra=0 / bframes=2 / b_pyramid=0 / b_adapt=1 / b_bias=0 / direct=1 / weightb=1 / open_gop=1 / weightp=1 / keyint=24 / keyint_min=1 / scenecut=40 / intra_refresh=0 / rc_lookahead=24 / rc=abr / mbtree=1 / bitrate=14000 / ratetol=1.0 / qcomp=0.60 / qpmin=3 / qpmax=69 / qpstep=4 / vbv_maxrate=35000 / vbv_bufsize=30000 / nal_hrd=vbr / filler=0 / ip_ratio=1.40 / aq=1:1.00
Language                                 : English
Default                                  : No
Forced                                   : No
Color range                              : Limited
Color primaries                          : BT.709
Transfer characteristics                 : BT.709
Matrix coefficients                      : BT.709

Audio #1
ID                                       : 2
Format                                   : DTS
Format/Info                              : Digital Theater Systems
Format profile                           : MA / Core
Mode                                     : 16
Format settings, Endianness              : Big
Codec ID                                 : A_DTS
Duration                                 : 2h 14mn
Bit rate mode                            : Variable / Constant
Bit rate                                 : Unknown / 1 509 Kbps
Channel(s)                               : 6 channels
Channel positions                        : Front: L C R, Side: L R, LFE
Sampling rate                            : 48.0 KHz
Frame rate                               : 93.750 fps (512 spf)
Bit depth                                : 24 bits
Compression mode                         : Lossless / Lossy
Title                                    : Death.Note.Light.Up.the.New.World.2016.JAPANESE.1080p.BluRay.REMUX.AVC.DTS-HD.MA.5.1-FGT
Language                                 : Japanese
Default                                  : Yes
Forced                                   : No

Audio #2
ID                                       : 3
Format                                   : DTS
Format/Info                              : Digital Theater Systems
Mode                                     : 16
Format settings, Endianness              : Big
Codec ID                                 : A_DTS
Duration                                 : 2h 14mn
Bit rate mode                            : Constant
Bit rate                                 : 1 509 Kbps
Channel(s)                               : 6 channels
Channel positions                        : Front: L C R, Side: L R, LFE
Sampling rate                            : 48.0 KHz
Frame rate                               : 93.750 fps (512 spf)
Bit depth                                : 24 bits
Compression mode                         : Lossy
Stream size                              : 1.42 GiB (6%)
Title                                    : Death.Note.Light.Up.the.New.World.2016.JAPANESE.1080p.BluRay.REMUX.AVC.DTS-HD.MA.5.1-FGT
Language                                 : Japanese
Default                                  : No
Forced                                   : No

Audio #3
ID                                       : 4
Format                                   : DTS
Format/Info                              : Digital Theater Systems
Format profile                           : MA / Core
Mode                                     : 16
Format settings, Endianness              : Big
Codec ID                                 : A_DTS
Duration                                 : 2h 14mn
Bit rate mode                            : Variable / Constant
Bit rate                                 : Unknown / 1 509 Kbps
Channel(s)                               : 6 channels
Channel positions                        : Front: L C R, Side: L R, LFE
Sampling rate                            : 48.0 KHz
Frame rate                               : 93.750 fps (512 spf)
Bit depth                                : 24 bits
Compression mode                         : Lossless / Lossy
Title                                    : Death.Note.Light.Up.the.New.World.2016.JAPANESE.1080p.BluRay.REMUX.AVC.DTS-HD.MA.5.1-FGT
Language                                 : Thai
Default                                  : No
Forced                                   : No

Audio #4
ID                                       : 5
Format                                   : DTS
Format/Info                              : Digital Theater Systems
Mode                                     : 16
Format settings, Endianness              : Big
Codec ID                                 : A_DTS
Duration                                 : 2h 14mn
Bit rate mode                            : Constant
Bit rate                                 : 1 509 Kbps
Channel(s)                               : 6 channels
Channel positions                        : Front: L C R, Side: L R, LFE
Sampling rate                            : 48.0 KHz
Frame rate                               : 93.750 fps (512 spf)
Bit depth                                : 24 bits
Compression mode                         : Lossy
Stream size                              : 1.42 GiB (6%)
Title                                    : Death.Note.Light.Up.the.New.World.2016.JAPANESE.1080p.BluRay.REMUX.AVC.DTS-HD.MA.5.1-FGT
Language                                 : Thai
Default                                  : No
Forced                                   : No

Text #1
ID                                       : 6
Format                                   : PGS
Muxing mode                              : zlib
Codec ID                                 : S_HDMV/PGS
Codec ID/Info                            : Picture based subtitle format used on BDs/HD-DVDs
Title                                    : English-PGS
Language                                 : English
Default                                  : Yes
Forced                                   : No

Text #2
ID                                       : 7
Format                                   : PGS
Muxing mode                              : zlib
Codec ID                                 : S_HDMV/PGS
Codec ID/Info                            : Picture based subtitle format used on BDs/HD-DVDs
Title                                    : Thai-PGS
Language                                 : Thai
Default                                  : No
Forced                                   : No

Menu
00:00:00.000                             : en:Chapter 01
00:10:21.166                             : en:Chapter 02
00:25:46.541                             : en:Chapter 03
00:40:25.333                             : en:Chapter 04
00:52:58.750                             : en:Chapter 05
01:01:19.458                             : en:Chapter 06
01:11:02.333                             : en:Chapter 07
01:19:10.166                             : en:Chapter 08
01:32:21.791                             : en:Chapter 09
01:40:44.000                             : en:Chapter 10
01:54:10.000                             : en:Chapter 11
02:01:14.958                             : en:Chapter 12

 
 
 
 
 
 
Category:Movies > Remux
Lang:Japanese  Japanese
Total Size:22.20 GB
Info Hash:4462cefbd12fb84560dd0217c2b98348f3752bcc
Added By:Unknown
Date Added:03-05-2017 11:30:07
Downloads:186

Ratings:Not Yet Rated (Log in to rate it)


Tracker:
http://tracker.trackerfix.com:80/announce


File List: 


Comments

No comments still posted

Top
Copyright 2018 DownloadHD -|- Page Generated In 1.604249 secs.
-|- RSS Feed -|- Feed Info