Login
Username:
Password:
[Signup]
[Recover Account]


Browse Torrents

Poll


You must be logged in to view polls



Latest Torrents
Call.The.Midwife.S...
- [Size: 340.85 MB]

Top.Gear.S26E01.RE...
- [Size: 1.41 GB]

Fast.Layne.S01E01....
- [Size: 233.06 MB]

Lethal.Admirer.201...
- [Size: 1.29 GB]

Call.The.Midwife.S...
- [Size: 949.09 MB]


Torrent Details For "The Final Destination 4 (2009) 720p Blu-Ray x264 DTS - Dual Audio [Hindi+English ] { TaRa }.mkv"

The Final Destination 4 (2009) 720p Blu-Ray x264 DTS - Dual Audio [Hindi+English ] { TaRa }.mkv

Download this torrent | Magnet Download
Health:
Seeds: 0
Leechers: 2
Completed:
Last Checked: 27-12-2018 22:16:26
External Torrent
Update Stats



Images Host

Poster


iMDB
Imdb Picture Title: The Final Destination
Year: 2009
Runtime: 82 minutes
Votes: 79191
Rating: 5.2/10
Language: English
Country: USA
All Genres: Horror, Thriller
Plot Outline: After a young man's premonition of a deadly race-car crash helps saves the lives of his peers, Death sets out to collect those who evaded their end.
Tagline: No mercy. No escape. No limits.
Director: David R. Ellis
Writing By: Eric Bress,Jeffrey Reddick,
Produced By: Richard Brener,Tawny Ellis,Walter Hamada,Sheila Hanahan,Craig Perry,Art Schaefer,Warren Zide,
Music: Brian Tyler
Plot:

In a car race in McKinley Speedway, twenty-something Nick has a premonition of a deadly car crash with many casualties in the audience and convinces his girlfriend Lori and his friends Hunt and Janet to leave the place. They are followed by the security guard; a racist guy; a mother with her children and a mechanic, that are saved from death. When the racist guy and the mother die in mysterious and creepy incidents, Nick and Lori research and find many similar cases in Internet. They try to lure The Reaper to break the chain of deadly events and survive, but destiny does not help them.

- Written by Claudio Carvalho, Rio de Janeiro, Brazil

After a young man's premonition of a deadly race-car crash helps saves the lives of his peers, Death sets out to collect those who evaded their end.

- Written by IMDb Editor
Cast:
Bobby Campo as Nick
Shantel VanSanten as Lori
Nick Zano as Hunt
Haley Webb as Janet
Mykelti Williamson as George
Krista Allen as MILF / Samantha
Andrew Fiscella as Mechanic
Justin Welborn as Racist
Stephanie Honoré as Mechanic's Girlfriend
Lara Grice as Racist's Wife
Trailers:
Theatrical Trailer


Watch-Free-HD     Download

Details
Name:The Final Destination 4 (2009) 720p Blu-Ray x264 DTS - Dual Audio [Hindi+English ] { TaRa }.mkv
Description:
The Final Destination 4 (2009) 720p Blu-Ray x264 DTS - Dual Audio [Hindi+English ] { TaRa }.mkv


===================================================================
General
Complete name               : The Final Destination 4 (2009) 720p Blu-Ray x264 DTS - Dual Audio [Hindi+English ] { TaRa }.mkv
Format                      : Matroska
Format version              : Version 4 / Version 2
File size                   : 2.40 GiB
Duration                    : 1 h 21 min
Overall bit rate            : 4 194 kb/s
===================================================================
Video
ID                          : 1
Format                      : AVC
Format/Info                 : Advanced Video Codec
Format profile              : [email protected]
Format settings, CABAC      : Yes
Format settings, ReFrames   : 4 frames
Codec ID                    : V_MPEG4/ISO/AVC
Duration                    : 1 h 21 min
Bit rate                    : 2 199 kb/s
Width                       : 1 280 pixels
Height                      : 544 pixels
Display aspect ratio        : 2.35:1
Frame rate mode             : Constant
Frame rate                  : 23.976 (24000/1001) FPS
Color space                 : YUV
Chroma subsampling          : 4:2:0
Bit depth                   : 8 bits
Scan type                   : Progressive
Bits/(Pixel*Frame)          : 0.132
Stream size                 : 1.22 GiB (51%)
Title                       : ......::::: TaRa :::::.....
Language                    : English
Default                     : Yes
Forced                      : No
===================================================================
Audio #1
ID                          : 2
Format                      : DTS
Format/Info                 : Digital Theater Systems
Mode                        : 16
Format settings, Endianness : Big
Codec ID                    : A_DTS
Duration                    : 1 h 21 min
Bit rate mode               : Constant
Bit rate                    : 1 026 kb/s
Channel(s)                  : 6 channels
Channel positions           : Front: L C R, Side: L R, LFE
Sampling rate               : 48.0 kHz
Frame rate                  : 93.750 FPS (512 spf)
Bit depth                   : 16 bits
Compression mode            : Lossy
Delay relative to video     : -83 ms
Stream size                 : 600 MiB (24%)
Title                       : ......::::: TaRa :::::.....  Hindi
Language                    : Hindi
Default                     : Yes
Forced                      : No
===================================================================
Audio #2
ID                          : 3
Format                      : DTS
Format/Info                 : Digital Theater Systems
Mode                        : 16
Format settings, Endianness : Big
Codec ID                    : A_DTS
Duration                    : 1 h 21 min
Bit rate mode               : Constant
Bit rate                    : 1 026 kb/s
Channel(s)                  : 6 channels
Channel positions           : Front: L C R, Side: L R, LFE
Sampling rate               : 48.0 kHz
Frame rate                  : 93.750 FPS (512 spf)
Bit depth                   : 16 bits
Compression mode            : Lossy
Delay relative to video     : -83 ms
Stream size                 : 600 MiB (24%)
Title                       : ......::::: TaRa :::::.....  English
Language                    : English
Default                     : No
Forced                      : No
===================================================================


                                               











 

Category:Movies > Hollywood Dub
Lang:Hindi
Total Size:2.40 GB
Info Hash:8076f0b61ebe6d4e88bd3562381b1ce8df778aca
Added By:SkTaRa
Date Added:03-05-2017 17:51:39
Downloads:294

Ratings:Not Yet Rated (Log in to rate it)

  


Tracker:
UDP://TRACKER.LEECHERS-PARADISE.ORG:6969/ANNOUNCE

This Torrent also has backup trackers
URLSeedersLeechersCompleted
http://tracker.dler.org:6969/announce000
http://ipv4.tracker.harry.lu:80/announce685


File List: 


Comments

No comments still posted

Top
Copyright 2018 DownloadHD -|- Page Generated In 5.440192 secs.
-|- RSS Feed -|- Feed Info