Login
Username:
Password:
[Signup]
[Recover Account]


Browse Torrents

Poll


You must be logged in to view polls



Latest Torrents
Schooled.S01E06.Xv...
- [Size: 284.84 MB]

Chicago.Med.S04E15...
- [Size: 315.29 MB]

Creed.II.2018.1080...
- [Size: 9.93 GB]

Creed.II.2018.BDRi...
- [Size: 625.59 MB]

Creed.II.2018.1080...
- [Size: 9.94 GB]


Torrent Details For "Narc.2002.1080p.BluRay.x264-Japhson"

Narc.2002.1080p.BluRay.x264-Japhson

Download this torrent | Magnet Download
Health:
Seeds: 0
Leechers: 12
Completed:
Last Checked: 15-02-2019 08:07:27
External Torrent
Update Stats



Images Host

Poster


iMDB
Imdb Picture Title: Narc
Year: 2002
Runtime: 105 minutes
Votes: 35203
Rating: 7.2/10
Language: English, Spanish
Country: USA, Canada
All Genres: Crime, Drama, Mystery, Thriller
Plot Outline: When the trail goes cold on a murder investigation of a policeman an undercover narcotics officer is lured back to the force to help solve the case.
Director: Joe Carnahan
Writing By: Joe Carnahan,
Produced By: Jed Baron,Peter Block,Tom Cruise,Andy Emilio,Randall Emmett,George Furla,Carol Gillson,David Glasser,Michael Z. Gordon,Michelle Grace,Michael S. Grayson,Tony Grazia,Brian R. Keathley,Seth J. Kittay,Ray Liotta,Stephen Montgomery,Diane Nabatoff,Julius R. Nasso,Sharon Seto,Adam M. Stone,Scott G. Stone,Paula Wagner,Jeff G. Waxman,
Music: Cliff Martinez
Plot:

An undercover narc dies, the investigation stalls, so the Detroit P.D. brings back Nick Tellis, fired 18-months ago when a stray bullet hits a pregnant woman. Tellis teams with Henry Oak, a friend of the dead narc and an aggressive cop constantly under the scrutiny of internal affairs. They follow leads, informants turn up dead, Nick's wife is unhappy he's back on the street, Henry's protective of the dead cop's wife. Nick reads and re-reads the case file, broods, watches Oak's heavy-handed style, sometimes joining in. The brass want to close out the case, Nick and Henry stay on it, and bits of evidence point them to an auto body shop. What actually happened; will Nick ever know?

- Written by <[email protected]>

When the trail goes cold on a murder investigation of a policeman an undercover narcotics officer is lured back to the force to help solve the case.

- Written by Anonymous
Cast:
Dan Leis as Elvin Dowd
Jason Patric as Nick Tellis
Lloyd Adams as Walter Dandridge
Meagan Issa as Little Girl
Lina Giornofelice as Jeanine Mueller
A.C. Peterson as Freeman Franks
Karen Robinson as Liz Detmer
Chi McBride as Captain Cheevers
Booth Savage as Cecil Mitchum
Alan Van Sprang as Michael Calvess


Watch-Free-HD     Download

Details
Name:Narc.2002.1080p.BluRay.x264-Japhson
Description:
MediaInfo

Video
ID                                       : 1
Format                                   : AVC
Format/Info                              : Advanced Video Codec
Format profile                           : [email protected]
Format settings, CABAC                   : Yes
Format settings, ReFrames                : 4 frames
Codec ID                                 : V_MPEG4/ISO/AVC
Duration                                 : 1 h 45 min
Bit rate                                 : 9 308 kb/s
Width                                    : 1 920 pixels
Height                                   : 1 040 pixels
Display aspect ratio                     : 1.85:1
Frame rate mode                          : Constant
Frame rate                               : 23.976 FPS
Color space                              : YUV
Chroma subsampling                       : 4:2:0
Bit depth                                : 8 bits
Scan type                                : Progressive
Bits/(Pixel*Frame)                       : 0.194
Stream size                              : 6.68 GiB (84%)
Writing library                          : x264 core 65 r1040M 1591275
Encoding settings                        : cabac=1 / ref=4 / deblock=1:-1:-1 / analyse=0x3:0x113 / me=umh / subme=7 / psy_rd=1.0:0.0 / mixed_ref=1 / me_range=16 / chroma_me=1 / trellis=2 / 8x8dct=1 / cqm=0 / deadzone=21,11 / chroma_qp_offset=-2 / threads=6 / nr=0 / decimate=1 / mbaff=0 / bframes=3 / b_pyramid=0 / b_adapt=2 / b_bias=0 / direct=3 / wpredb=1 / keyint=250 / keyint_min=25 / scenecut=40(pre) / rc=2pass / bitrate=9308 / ratetol=1.0 / qcomp=0.60 / qpmin=10 / qpmax=51 / qpstep=4 / cplxblur=20.0 / qblur=0.5 / vbv_maxrate=50000 / vbv_bufsize=50000 / ip_ratio=1.40 / pb_ratio=1.30 / aq=1:1.00
Language                                 : English
Default                                  : Yes
Forced                                   : No

Audio
ID                                       : 2
Format                                   : DTS
Format/Info                              : Digital Theater Systems
Mode                                     : 16
Format settings, Endianness              : Big
Codec ID                                 : A_DTS
Duration                                 : 1 h 45 min
Bit rate mode                            : Constant
Bit rate                                 : 1 509 kb/s
Channel(s)                               : 6 channels
Channel positions                        : Front: L C R, Side: L R, LFE
Sampling rate                            : 48.0 kHz
Frame rate                               : 93.750 FPS (512 spf)
Bit depth                                : 16 bits
Compression mode                         : Lossy
Stream size                              : 1.11 GiB (14%)
Language                                 : English
Default                                  : Yes
Forced                                   : No

 
Category:Movies > 1080P Bluray
Lang:English  English
Total Size:7.95 GB
Info Hash:5579ce6cc6b04d6b82aa1fe873f884b770f6276f
Added By:Agent47
Date Added:16-08-2017 10:58:02
Downloads:51

Ratings:Not Yet Rated (Log in to rate it)


Tracker:
http://tracker.trackerfix.com:80/announce


File List: 


Comments

No comments still posted

Top
Copyright 2018 DownloadHD -|- Page Generated In 1.181710 secs.
-|- RSS Feed -|- Feed Info