Login
Username:
Password:
[Signup]
[Recover Account]


Browse Torrents

Poll


You must be logged in to view polls



Latest Torrents
Daas Dev (2018) Hi...
- [Size: 708.98 MB]

Chopped.S41E02.Chi...
- [Size: 408.62 MB]

Children.of.the.Sn...
- [Size: 480.63 MB]

Windy.City.Rehab.S...
- [Size: 354.87 MB]

Bobs.Burgers.S09E1...
- [Size: 347.84 MB]


Torrent Details For "The.Pirates.Band.of.Misfits.2012.1080p.BluRay.x264.DTS-FGT"

The.Pirates.Band.of.Misfits.2012.1080p.BluRay.x264.DTS-FGT

Download this torrent | Magnet Download
Health:
Seeds: 0
Leechers: 2
Completed:
Last Checked: 15-02-2019 20:01:30
External Torrent
Update Stats



Images Host

Poster


iMDB
Imdb Picture Original Title: The Pirates! In an Adventure with Scientists!
Title: The Pirates! Band of Misfits
Year: 2012
Runtime: 88 minutes
Votes: 38654
Rating: 6.7/10
Language: English
Country: UK, USA
All Genres: Animation, Adventure, Comedy, Family
Plot Outline: Pirate Captain sets out on a mission to defeat his rivals Black Bellamy and Cutlass Liz for the Pirate of the year Award. The quest takes Captain and his crew from the shores of Blood Island to the foggy streets of Victorian London.
Tagline: Let's go plundering
Director: Peter Lord
Jeff Newitt
Writing By: Gideon Defoe,Gideon Defoe,
Produced By: Susan Breen,Julie Lockhart,Peter Lord,Carla Shelley,Sarah Smith,David Sproxton,
Music: Theodore Shapiro
Plot:

After years of humiliation and failed attempts to win the coveted Pirate of the Year Award, Pirate Captain and his oddball crew take on the cream of the pirating crop - Black Bellamy, Peg Leg Hastings and Cutlass Liz - in a race to pillage the most booty. They soon cross paths with lovelorn scientist Charles Darwin, who persuades the Captain that the crew's prized 'parrot', Polly, could be the answer to the 'untold riches' they are searching for. Their adventure takes them to Victorian London where they meet Darwin's sidekick 'man-panzee' Mister Bobo, and the notorious pirate-hating Queen Victoria herself. It soon unfolds that Darwin's motives for helping the crew are not what they seem, and the Queen has an evil hidden agenda of her own. The Pirate Captain must choose between basking in the glory of being crowned Pirate of the Year, or staying faithful to his trusted crew.

- Written by Tom

Pirate Captain sets out on a mission to defeat his rivals Black Bellamy and Cutlass Liz for the Pirate of the year Award. The quest takes Captain and his crew from the shores of Blood Island to the foggy streets of Victorian London.

- Written by IMDb Editors
Cast:
Hugh Grant as The Pirate Captain
Martin Freeman as The Pirate with a Scarf
Imelda Staunton as Queen Victoria
David Tennant as Charles Darwin
Jeremy Piven as Black Bellamy
Salma Hayek as Cutlass Liz
Lenny Henry as Peg Leg Hastings
Brian Blessed as The Pirate King
Russell Tovey as The Albino Pirate
Anton Yelchin as The Albino Pirate
Trailers:
The Pirates! International Trailer
No. 2
U.K. Version #2
U.K. Version #1
The Pirates! Band of Misfits: Trailer #1


Watch-Free-HD     Download

Details
Name:The.Pirates.Band.of.Misfits.2012.1080p.BluRay.x264.DTS-FGT
Description:
MediaInfo

Video
ID                                       : 1
Format                                   : AVC
Format/Info                              : Advanced Video Codec
Format profile                           : [email protected]
Format settings, CABAC                   : Yes
Format settings, ReFrames                : 4 frames
Codec ID                                 : V_MPEG4/ISO/AVC
Duration                                 : 1 h 28 min
Bit rate                                 : 8 600 kb/s
Width                                    : 1 920 pixels
Height                                   : 818 pixels
Display aspect ratio                     : 2.35:1
Frame rate mode                          : Constant
Frame rate                               : 23.976 (24000/1001) FPS
Color space                              : YUV
Chroma subsampling                       : 4:2:0
Bit depth                                : 8 bits
Scan type                                : Progressive
Bits/(Pixel*Frame)                       : 0.228
Stream size                              : 5.18 GiB (83%)
Writing library                          : x264 core 125 r2208 d9d2288
Encoding settings                        : cabac=1 / ref=4 / deblock=1:-3:-3 / analyse=0x3:0x113 / me=tesa / subme=11 / psy=1 / psy_rd=0.65:0.00 / mixed_ref=1 / me_range=16 / chroma_me=1 / trellis=2 / 8x8dct=1 / cqm=0 / deadzone=21,11 / fast_pskip=0 / chroma_qp_offset=-2 / threads=12 / lookahead_threads=2 / sliced_threads=0 / nr=0 / decimate=0 / interlaced=0 / bluray_compat=0 / constrained_intra=0 / bframes=6 / b_pyramid=2 / b_adapt=2 / b_bias=0 / direct=3 / weightb=1 / open_gop=0 / weightp=2 / keyint=250 / keyint_min=23 / scenecut=40 / intra_refresh=0 / rc=2pass / mbtree=0 / bitrate=8600 / ratetol=1.0 / qcomp=0.50 / qpmin=0 / qpmax=69 / qpstep=4 / cplxblur=20.0 / qblur=0.5 / ip_ratio=1.40 / pb_ratio=1.30 / aq=1:1.05
Language                                 : English
Default                                  : Yes
Forced                                   : No

Audio
ID                                       : 2
Format                                   : DTS
Format/Info                              : Digital Theater Systems
Mode                                     : 16
Format settings, Endianness              : Big
Codec ID                                 : A_DTS
Duration                                 : 1 h 28 min
Bit rate mode                            : Constant
Bit rate                                 : 1 509 kb/s
Channel(s)                               : 6 channels
Channel positions                        : Front: L C R, Side: L R, LFE
Sampling rate                            : 48.0 kHz
Frame rate                               : 93.750 FPS (512 spf)
Bit depth                                : 24 bits
Compression mode                         : Lossy
Delay relative to video                  : 11 ms
Stream size                              : 951 MiB (15%)
Language                                 : English
Default                                  : Yes
Forced                                   : No

Text #1
ID                                       : 3
Format                                   : UTF-8
Codec ID                                 : S_TEXT/UTF8
Codec ID/Info                            : UTF-8 Plain Text
Language                                 : English
Default                                  : No
Forced                                   : No

Text #2
ID                                       : 4
Format                                   : UTF-8
Codec ID                                 : S_TEXT/UTF8
Codec ID/Info                            : UTF-8 Plain Text
Language                                 : Dutch
Default                                  : No
Forced                                   : No

Text #3
ID                                       : 5
Format                                   : UTF-8
Codec ID                                 : S_TEXT/UTF8
Codec ID/Info                            : UTF-8 Plain Text
Language                                 : French
Default                                  : No  
Category:Movies > 1080P Bluray
Lang:English  English
Total Size:6.23 GB
Info Hash:4647228135d227115e51214a480359fb8e39700b
Added By:Agent47
Date Added:21-08-2017 22:50:07
Downloads:110

Ratings:Not Yet Rated (Log in to rate it)


Tracker:
http://tracker.trackerfix.com:80/announce


File List: 


Comments

No comments still posted

Top
Copyright 2018 DownloadHD -|- Page Generated In 0.350597 secs.
-|- RSS Feed -|- Feed Info