Login
Username:
Password:
[Signup]
[Recover Account]


Browse Torrents

Poll


You must be logged in to view polls



Latest Torrents
Windy.City.Rehab.S...
- [Size: 354.87 MB]

Bobs.Burgers.S09E1...
- [Size: 347.84 MB]

Spider-Man.Into th...
- [Size: 2.26 GB]

The.Simpsons.S30E1...
- [Size: 544.03 MB]

The.Simpsons.S30E1...
- [Size: 301.38 MB]


Torrent Details For "Return.to.Me.2000.1080p.BluRay.X264-AMIABLE"

Return.to.Me.2000.1080p.BluRay.X264-AMIABLE

Download this torrent | Magnet Download
Health:
Seeds: 0
Leechers: 4
Completed:
Last Checked: 03-01-2019 18:27:22
External Torrent
Update Stats



Images Host

Poster


iMDB
Imdb Picture Title: Return to Me
Year: 2000
Runtime: 115 minutes
Votes: 17170
Rating: 6.9/10
Language: English, Italian
Country: USA
All Genres: Comedy, Drama, Romance
Plot Outline: A man who falls in love with the woman who received his wife's heart must decide which woman it is who holds his heart.
Tagline: For the strength to be strong; for the will to carry on; for everything you do; for everything that's true; I turn to you.
Director: Bonnie Hunt
Writing By: Bonnie Hunt,Don Lake,Andrew Stern,Samantha Goodman,Bonnie Hunt,Don Lake,
Produced By: C.O. Erickson,Melanie Greene,Jennie Lew Tugend,
Music: Nicholas Pike
Plot:

The film opens with a loving husband and wife preparing for a very important fund raising dinner. The evening ends with the loss of the wife. In a hospital a weak young woman who may die soon if she can not get a new heart. Jump ahead one year the young woman received a heart and is trying to adjust to a life no longer counted by hours or days, she can actually make plans. The grieving husband and his dog are still trying to adjust to life without his wife. His friends keep trying to pry him from his "work is my life" existence by setting him up on blinds dates. Finally he actually shows up for one at an Irish-Italian restaurant where he finds himself more attracted to the waitress than his blind date. He finds an excuse to return to the restaurant in hopes of seeing the waitress again, there's just something attractive about her. Unknown to both the attraction they both feel for one another is Grace has the heart of Bob's dead wife. What can you say after that! Carroll O'Connor says exactly the right thing to Bob after he finds out this ironic coincidence.

- Written by Gremma

Bob Rueland, a Chicago building contractor, cherishes life with his veterinarian wife until she is tragically killed in an automobile accident. Meanwhile the family and friends of Grace Briggs, a waitress at a local Italian restaurant, are overjoyed when they learn that Grace will finally get a replacement heart (the heart of Bob's wife). Both Bob and Grace struggle to maintain normal lives after these traumatic events, until fate intervenes and brings them together.

- Written by Stephen Hughes

In this comedy-drama which shows us how the tragic death of one human being can still save the life of another, a happily-married man (David Duchovny) is struck with tragedy when his wife (Joely Richardson) dies from complications of a car accident. In her death, however, another is given life, as another young woman (Minnie Driver) with an ailing heart is given a transplant. Finally able to live a normal, happy life for the first time in years, she joins her grandfather in helping to run an Irish-themed restaurant, where she meets the widower, never imagining that the heart beating in her chest belonged to his wife. They slowly fall madly in love with each other, but when she learns the shocking truth, she is torn by whether or not she should let him know about the transplant she received and who it came from.

- Written by Curly Q. Link

A man who falls in love with the woman who received his wife's heart must decide which woman it is who holds his heart.

- Written by D'Amico
Cast:
David Duchovny as Bob Rueland
Minnie Driver as Grace Briggs
Carroll O'Connor as Marty O'Reilly
Robert Loggia as Angelo Pardipillo
Bonnie Hunt as Megan Dayton
David Alan Grier as Charlie Johnson
Joely Richardson as Elizabeth Rueland
Eddie Jones as Emmett McFadden
James Belushi as Joe Dayton
Marianne Muellerleile as Sophie


Watch-Free-HD     Download

Details
Name:Return.to.Me.2000.1080p.BluRay.X264-AMIABLE
Description:
MediaInfo

Video
ID                                       : 1
Format                                   : AVC
Format/Info                              : Advanced Video Codec
Format profile                           : [email protected]
Format settings, CABAC                   : Yes
Format settings, ReFrames                : 4 frames
Codec ID                                 : V_MPEG4/ISO/AVC
Duration                                 : 1 h 55 min
Bit rate                                 : 10.6 Mb/s
Width                                    : 1 920 pixels
Height                                   : 1 040 pixels
Display aspect ratio                     : 1.85:1
Frame rate mode                          : Constant
Frame rate                               : 23.976 (24000/1001) FPS
Color space                              : YUV
Chroma subsampling                       : 4:2:0
Bit depth                                : 8 bits
Scan type                                : Progressive
Bits/(Pixel*Frame)                       : 0.222
Stream size                              : 8.42 GiB (86%)
Writing library                          : x264 core 144 r2525 40bb568
Encoding settings                        : cabac=1 / ref=4 / deblock=1:-3:-3 / analyse=0x3:0x113 / me=umh / subme=8 / psy=1 / psy_rd=1.00:0.00 / mixed_ref=1 / me_range=16 / chroma_me=1 / trellis=1 / 8x8dct=1 / cqm=0 / deadzone=21,11 / fast_pskip=1 / chroma_qp_offset=-2 / threads=12 / lookahead_threads=2 / sliced_threads=0 / nr=0 / decimate=1 / interlaced=0 / bluray_compat=0 / constrained_intra=0 / bframes=3 / b_pyramid=2 / b_adapt=2 / b_bias=0 / direct=3 / weightb=1 / open_gop=0 / weightp=2 / keyint=240 / keyint_min=24 / scenecut=40 / intra_refresh=0 / rc_lookahead=50 / rc=2pass / mbtree=1 / bitrate=10640 / ratetol=1.0 / qcomp=0.60 / qpmin=0 / qpmax=69 / qpstep=4 / cplxblur=20.0 / qblur=0.5 / ip_ratio=1.40 / aq=1:1.00
Language                                 : English
Default                                  : Yes
Forced                                   : No

Audio
ID                                       : 2
Format                                   : DTS
Format/Info                              : Digital Theater Systems
Mode                                     : 16
Format settings, Endianness              : Big
Codec ID                                 : A_DTS
Duration                                 : 1 h 55 min
Bit rate mode                            : Constant
Bit rate                                 : 1 509 kb/s
Channel(s)                               : 6 channels
Channel positions                        : Front: L C R, Side: L R, LFE
Sampling rate                            : 48.0 kHz
Frame rate                               : 93.750 FPS (512 spf)
Bit depth                                : 24 bits
Compression mode                         : Lossy
Stream size                              : 1.22 GiB (12%)
Language                                 : English
Default                                  : Yes
Forced                                   : No


 http://imagecurl.com/viewer.ph...4946328.png[/center]
Category:Movies > 1080P Bluray
Lang:English  English
Total Size:9.84 GB
Info Hash:0dceba27d9fc925cae7cf202abfa65b47270cef5
Added By:Agent47
Date Added:27-08-2017 15:14:14
Downloads:66

Ratings:Not Yet Rated (Log in to rate it)


Tracker:
http://tracker.trackerfix.com:80/announce


File List: 


Comments

No comments still posted

Top
Copyright 2018 DownloadHD -|- Page Generated In 0.298428 secs.
-|- RSS Feed -|- Feed Info