Login
Username:
Password:
[Signup]
[Recover Account]


Browse Torrents

Poll


You must be logged in to view polls



Latest Torrents
From.Straight.as.t...
- [Size: 896.22 MB]

Cheater 2016 Marat...
- [Size: 2.59 GB]

Live.PD.S03E45.HDT...
- [Size: 1.75 GB]

Overlord.2018.INTE...
- [Size: 18.67 GB]

Crucible.of.the.Va...
- [Size: 1.33 GB]


Torrent Details For "1911.Revolution.2011.aka.Xin.hai.ge.ming.720p.BluRay.x264.Dual.Audio.{Hindi.DD.2.0-Eng}-maveric..."

1911.Revolution.2011.aka.Xin.hai.ge.ming.720p.BluRay.x264.Dual.Audio.{Hindi.DD.2.0-Eng}-maveric...

Download this torrent | Magnet Download
Health:
Seeds: 0
Leechers: 6
Completed: 3,436 
Last Checked: 22-01-2019 00:46:43
External Torrent
Update Stats



Images Host

Poster


iMDB
Imdb Picture Original Title: Xin hai ge ming
Title: 1911
Year: 2011
Runtime: 121 minutes
Votes: 4940
Rating: 6.0/10
Language: Mandarin, English, French
Country: China, Hong Kong
All Genres: Action, Adventure, Drama, History, War
Plot Outline: A historical drama based on the founding of the Republic of China when nationalist forces led by Sun Yat-sen overthrew the Qing Dynasty.
Tagline: Fall of the Last Empire
Director: Li Zhang
Jackie Chan
Writing By: Xingdong Wang,Baoguang Chen,
Produced By: Guoqing Gu,Bin Guo,Peter Lam,Li-Juan Liu,Jianhong Qi,Zhong-lun Ren,Xiaoyi Shen,Dafang Wang,Lian Yu,Li Zhou,Pixue Zhou,
Plot:

A historical drama based on the founding of the Republic of China when nationalist forces led by Sun Yat-sen overthrew the Qing Dynasty.

- Written by Anonymous
Cast:
Jackie Chan as Huang Xing
Winston Chao as Sun Yat-sen
Bingbing Li as Xu Zonghan
Chun Sun as Yuan Shikai
Joan Chen as Empress Longyu
Wu Jiang as Li Yuanhong
Jaycee Chan as Zhang Zhenwu
Ge Hu as Lin Juemin
Jing Ning as Qiu Jin
Shaoqun Yu as Wang Jingwei
Trailers:
U.S. Version


Watch-Free-HD     Download

Details
Name:1911.Revolution.2011.aka.Xin.hai.ge.ming.720p.BluRay.x264.Dual.Audio.{Hindi.DD.2.0-Eng}-maveric...
Description:
General
Complete name                            : 1911.Revolution.2011.720p.BluRay.x264.Dual.Audio.{Hindi.DD.2.0-Eng}-maverick [Exclusive].mkv
Format                                   : Matroska
Format version                           : Version 4 / Version 2
File size                                : 1.15 GiB
Duration                                 : 1h 39mn
Overall bit rate                         : 1 663 Kbps


Video
ID                                       : 1
Format                                   : AVC
Format/Info                              : Advanced Video Codec
Format profile                           : [email protected]
Format settings, CABAC                   : Yes
Format settings, ReFrames                : 5 frames
Codec ID                                 : V_MPEG4/ISO/AVC
Duration                                 : 1h 39mn
Bit rate                                 : 1 277 Kbps
Width                                    : 1 280 pixels
Height                                   : 544 pixels
Display aspect ratio                     : 2.35:1
Frame rate mode                          : Constant
Frame rate                               : 24.000 fps
Color space                              : YUV
Chroma subsampling                       : 4:2:0
Bit depth                                : 8 bits
Scan type                                : Progressive
Bits/(Pixel*Frame)                       : 0.076
Stream size                              : 883 MiB (75%)
Title                                    : maverick
Writing library                          : x264 core 148 r2708 86b7198
Language                                 : Chinese
Default                                  : Yes
Forced                                   : Yes
Color range                              : Limited
Color primaries                          : BT.709
Transfer characteristics                 : BT.709
Matrix coefficients                      : BT.709

Audio #1
ID                                       : 2
Format                                   : AC-3
Format/Info                              : Audio Coding 3
Mode extension                           : CM (complete main)
Format settings, Endianness              : Big
Codec ID                                 : A_AC3
Duration                                 : 1h 39mn
Bit rate mode                            : Constant
Bit rate                                 : 192 Kbps
Channel(s)                               : 2 channels
Channel positions                        : Front: L R
Sampling rate                            : 48.0 KHz
Frame rate                               : 31.250 fps (1536 spf)
Compression mode                         : Lossy
Stream size                              : 136 MiB (12%)
Title                                    : maverick
Language                                 : Hindi
Default                                  : Yes
Forced                                   : Yes

Audio #2
ID                                       : 3
Format                                   : AC-3
Format/Info                              : Audio Coding 3
Mode extension                           : CM (complete main)
Format settings, Endianness              : Big
Codec ID                                 : A_AC3
Duration                                 : 1h 39mn
Bit rate mode                            : Constant
Bit rate                                 : 192 Kbps
Channel(s)                               : 6 channels
Channel positions                        : Front: L C R, Side: L R, LFE
Sampling rate                            : 48.0 KHz
Frame rate                               : 31.250 fps (1536 spf)
Compression mode                         : Lossy
Stream size                              : 136 MiB (12%)
Title                                    : maverick
Language                                 : English
Default                                  : No
Forced                                   : No

Text
ID                                       : 4
Format                                   : UTF-8
Codec ID                                 : S_TEXT/UTF8
Codec ID/Info                            : UTF-8 Plain Text
Title                                    : maverick
Language                                 : English
Default                                  : Yes
Forced                                   : Yes

Menu
00:00:00.000                             : en:Chapter 1
00:05:47.833                             : en:Chapter 2
00:11:07.125                             : en:Chapter 3
00:15:35.250                             : en:Chapter 4
00:20:28.458                             : en:Chapter 5
00:25:02.166                             : en:Chapter 6
00:30:22.875                             : en:Chapter 7
00:36:30.125                             : en:Chapter 8
00:42:13.750                             : en:Chapter 9
00:49:20.291                             : en:Chapter 10
00:54:17.625                             : en:Chapter 11
00:58:06.166                             : en:Chapter 12
01:03:26.208                             : en:Chapter 13
01:09:22.958                             : en:Chapter 14
01:14:02.958                             : en:Chapter 15
01:19:50.458                             : en:Chapter 16
01:23:12.083                             : en:Chapter 17
01:27:29.625                             : en:Chapter 18
01:31:30.958                             : en:Chapter 19
01:35:30.125                             : en:Chapter 20


Category:Movies > Hollywood Dub
Lang:English  English
Total Size:1.17 GB
Info Hash:42132b92520d6eecbba0d8378fb9720faab7ed51
Added By:SULTAN
Date Added:06-05-2017 18:10:12
Downloads:414

Ratings:Not Yet Rated (Log in to rate it)


Tracker:
udp://p4p.arenabg.ch:1337/announce


File List: 


Comments

No comments still posted

Top
Copyright 2018 DownloadHD -|- Page Generated In 1.113973 secs.
-|- RSS Feed -|- Feed Info