Login
Username:
Password:
[Signup]
[Recover Account]


Browse Torrents

Poll


You must be logged in to view polls



Latest Torrents
Grown-ish.S02E09.7...
- [Size: 517.32 MB]

Gordon.Ramsays.24....
- [Size: 1.04 GB]

Grown-ish.S02E09.W...
- [Size: 169.74 MB]

Burden.of.Truth.S0...
- [Size: 858.03 MB]

Gordon.Ramsays.24....
- [Size: 347.93 MB]


Torrent Details For "The Hero 2017 720p BluRay x264 AAC 5.1 ESub - Download"

The Hero 2017 720p BluRay x264 AAC 5.1 ESub - Download

Download this torrent | Magnet Download
Health:
Seeds: 0
Leechers: 1
Completed:
Last Checked: 30-01-2019 09:47:47
External Torrent
Update Stats



Images Host

Poster


iMDB
Imdb Picture Title: The Hero
Year: 2017
Runtime: 93 minutes
Votes: 865
Rating: 7.2/10
Language: English
Country: USA
All Genres: Comedy, Drama
Plot Outline: An ailing movie star comes to terms with his past and mortality.
Director: Brett Haley
Writing By: Brett Haley,Marc Basch,
Produced By: Lance Acord,Jackie Kelman Bisbee,Sam Bisbee,Frank Brenner,David Bunce,Franklin Carson,Theodora Dunlap,Amy Jarvela,Houston King,Danny Rifkin,Erik Rommesmo,Jeff Schlossman,Bill Wallwork,
Music: Keegan DeWitt
Cast:
Sam Elliott as Lee Hayden
Laura Prepon as Charlotte Dylan
Nick Offerman as Jeremy Frost
Krysten Ritter as Lucy Hayden
Katharine Ross as Valarie Hayden
Doug Cox as Doctor
Max Gail as Gary Babcock
Jackie Joyner as Betsy
Patrika Darbo as Diane
Frank Collison as Man in Dream
Trailers:
Trailer #1


Watch-Free-HD     Download

Details
Name:The Hero 2017 720p BluRay x264 AAC 5.1 ESub - Download
Description:
The Hero 2017 720p BluRay x264 AAC 5.1 ESub - Download


Format                      : Matroska
Format version              : Version 4 / Version 2
File size                   : 964 MiB
Duration                    : 1 h 36 min
Overall bit rate            : 1 393 kb/s
Movie name                  : The Hero 2017-Download


Video
ID                          : 1
Format                      : AVC
Format/Info                 : Advanced Video Codec
Format profile              : [email protected]
Format settings, CABAC      : Yes
Format settings, RefFrames  : 8 frames
Codec ID                    : V_MPEG4/ISO/AVC
Duration                    : 1 h 36 min
Bit rate                    : 1 200 kb/s
Width                       : 1 280 pixels
Height                      : 544 pixels
Display aspect ratio        : 2.35:1
Frame rate mode             : Constant
Frame rate                  : 23.976 (24000/1001) FPS


Audio
ID                          : 2
Format                      : AAC
Format/Info                 : Advanced Audio Codec
Format profile              : LC
Codec ID                    : A_AAC
Duration                    : 1 h 36 min
Bit rate                    : 192 kb/s
Channel(s)                  : 6 channels
Channel positions           : Front: L C R, Side: L R, LFE
Sampling rate               : 48.0 kHz


Text #1
ID                          : 3
Format                      : UTF-8
Codec ID                    : S_TEXT/UTF8
Codec ID/Info               : UTF-8 Plain Text
Duration                    : 1 h 30 min
Bit rate                    : 39 b/s
Count of elements           : 942
Stream size                 : 25.8 KiB (0%)
Language                    : English
Default                     : No
Forced                      : No

Text #2
ID                          : 4
Format                      : UTF-8
Codec ID                    : S_TEXT/UTF8
Codec ID/Info               : UTF-8 Plain Text
Duration                    : 1 h 35 min
Bit rate                    : 44 b/s
Count of elements           : 1134
Stream size                 : 31.3 KiB (0%)
Title                       : SDH
Language                    : English
Default                     : No
Forced                      : No

Menu
00:00:00.000                : en:00:00:00.000
00:07:59.813                : en:00:07:59.813
00:15:24.549                : en:00:15:24.549
00:21:13.856                : en:00:21:13.856
00:29:46.618                : en:00:29:46.618
00:39:17.480                : en:00:39:17.480
00:49:55.284                : en:00:49:55.284
00:56:31.680                : en:00:56:31.680
01:02:00.425                : en:01:02:00.425
01:10:29.142                : en:01:10:29.142
01:19:06.367                : en:01:19:06.367
01:31:39.369                : en:01:31:39.369

         
Category:Movies > 720P Bluray
Lang:English  English
Total Size:969.02 MB
Info Hash:c49b294527887b49c07933488f0bfecf26134074
Added By:Unknown
Date Added:09-09-2017 02:09:05
Downloads:317

Ratings:Not Yet Rated (Log in to rate it)


Tracker:
http://ipv4.tracker.harry.lu/announce

This Torrent also has backup trackers
URLSeedersLeechersCompleted
http://ipv4.tracker.harry.lu/announce131145
http://ipv4.tracker.harry.lu:80/announce131145
http://opentracker-milanesi.rhcloud.com/announce15120
http://t.nyaatracker.com/announce9944
http://tracker.devil-torrents.pl:80/announce14130
http://tracker.devil-torrents.pl/announce14130
http://open.kickasstracker.com/announce16150
http://opentracker-milanesi.rhcloud.com:80/announce15120
http://open.kickasstracker.com:443/announce16150
http://opentracker-milanesi.rhcloud.com:443/announce000
http://t.nyaatracker.com:80/announce9944


File List: 


Comments

No comments still posted

Top
Copyright 2018 DownloadHD -|- Page Generated In 1.302407 secs.
-|- RSS Feed -|- Feed Info