Login
Username:
Password:
[Signup]
[Recover Account]


Browse Torrents

Poll


You must be logged in to view polls



Latest Torrents
Evil.Lives.Here.S0...
- [Size: 220.93 MB]

Call.The.Midwife.S...
- [Size: 339.36 MB]

Call.The.Midwife.S...
- [Size: 340.85 MB]

Top.Gear.S26E01.RE...
- [Size: 1.41 GB]

Fast.Layne.S01E01....
- [Size: 233.06 MB]


Torrent Details For "Shinjuku Incident (2009) 1080p x264 [Hindi Org DD 5.1 448Kbps] [Dzrg Torrents®].mkv"

Shinjuku Incident (2009) 1080p x264 [Hindi Org DD 5.1 448Kbps] [Dzrg Torrents®].mkv

Download this torrent | Magnet Download
Health:
Seeds: 0
Leechers: 8
Completed: 338 
Last Checked: 20-03-2018 07:18:20
External Torrent
Update Stats



Images Host

Poster


iMDB
Imdb Picture Original Title: San suk si gin
Title: Shinjuku Incident
Year: 2009
Runtime: 119 minutes
Votes: 9716
Rating: 7.1/10
Language: Mandarin, Japanese, Cantonese, English, Min Nan, Hokkien
Country: Hong Kong
All Genres: Action, Crime, Drama, Thriller
Plot Outline: A simple Chinese immigrant wages a perilous war against one of the most powerful criminal organizations on the planet.
Tagline: Loyalty. Survival. Betrayal.
Director: Tung-Shing Yee
Writing By: Tung-Shing Yee,Tin Nam Chun,
Produced By: Jackie Chan,Willie Chan,Henry Fong,Norihisa Harada,Shirley Kao,Jamie Luk,Solon So,Albert Yeung,
Music: Peter Kam
Cast:
Jackie Chan as Steelhead
Naoto Takenaka as Inspector Kitano
Daniel Wu as Jie
Jinglei Xu as Xiu Xiu / Yuko Eguchi
Masaya Katô as Toshinari Eguchi
Bingbing Fan as Lily
Tôru Minegishi as Koichi Muranishi
Kenya Sawada as Nakajima
Jack Kao as Gao Jie
Paul Chun as Uncle De


Watch-Free-HD     Download

Details
Name:Shinjuku Incident (2009) 1080p x264 [Hindi Org DD 5.1 448Kbps] [Dzrg Torrents®].mkv
Description:




Shinjuku Incident (2009) 1080p x264 [Hindi Org DD 5.1 448Kbps] [Dzrg Torrents®].mkv


General
Format                                   : Matroska
Format version                           : Version 4 / Version 2
File size                                : 2.04 GiB
Duration                                 : 1 h 59 min
Overall bit rate                         : 2 449 kb/s
Encoded date                             : UTC 2017-09-14 03:50:42
Writing application                      : mkvmerge v10.0.0 ('To Drown In You') 64bit
Writing library                          : libebml v1.3.4 + libmatroska v1.4.5




Video
ID                                       : 1
Format                                   : AVC
Format/Info                              : Advanced Video Codec
Format profile                           : [email protected]
Format settings, CABAC                   : Yes
Format settings, ReFrames                : 5 frames
Codec ID                                 : V_MPEG4/ISO/AVC
Duration                                 : 1 h 59 min
Bit rate                                 : 2 000 kb/s
Width                                    : 1 920 pixels
Height                                   : 814 pixels
Display aspect ratio                     : 2.35:1
Frame rate mode                          : Constant
Frame rate                               : 24.000 FPS
Color space                              : YUV
Chroma subsampling                       : 4:2:0
Bit depth                                : 8 bits
Scan type                                : Progressive
Bits/(Pixel*Frame)                       : 0.053
Stream size                              : 1.67 GiB (82%)
Title                                    : Shinjuku Incident (2009) 1080p x264 [Dzrg Torrents®]
Writing library                          : x264 core 148 r2638 7599210
Language                                 : English
Default                                  : Yes
Forced                                   : No






Audio
ID                                       : 2
Format                                   : AC-3
Format/Info                              : Audio Coding 3
Mode extension                           : CM (complete main)
Format settings, Endianness              : Big
Codec ID                                 : A_AC3
Duration                                 : 1 h 59 min
Bit rate mode                            : Constant
Bit rate                                 : 448 kb/s
Channel(s)                               : 6 channels
Channel positions                        : Front: L C R, Side: L R, LFE
Sampling rate                            : 48.0 kHz
Frame rate                               : 31.250 FPS (1536 spf)
Bit depth                                : 16 bits
Compression mode                         : Lossy
Stream size                              : 382 MiB (18%)
Title                                    : [Hindi Org DD 5.1 448Kbps] [Dzrg Torrents®]
Language                                 : Hindi
Default                                  : Yes
Forced                                   : No



Text
ID                                       : 3
Format                                   : UTF-8
Codec ID                                 : S_TEXT/UTF8
Codec ID/Info                            : UTF-8 Plain Text
Duration                                 : 1 h 54 min
Bit rate                                 : 45 b/s
Count of elements                        : 1597
Stream size                              : 37.9 KiB (0%)
Title                                    : English SRT
Language                                 : English
Default                                  : Yes
Forced                                   : No










Category:Movies > Hollywood Dub
Lang:Hindi
Total Size:2.04 GB
Info Hash:d28d1a1230f7d56d51f39337ebb3abfd840bc184
Added By:DzrgTorrents
Date Added:14-09-2017 05:41:08
Downloads:1,434

Ratings:Not Yet Rated (Log in to rate it)


Tracker:
udp://9.rarbg.com:2790/announce


File List: 


Comments

<< Previous      Next >>
1 - 2

[Report] Posted: 14-09-2017 at 05:41:52
DzrgTorrents



Enjoy Guys

[Report] Posted: 14-09-2017 at 09:25:51
wiki



Thanks FOr the sharing

1 - 2
<< Previous      Next >>


Top
Copyright 2018 DownloadHD -|- Page Generated In 3.031625 secs.
-|- RSS Feed -|- Feed Info