Login
Username:
Password:
[Signup]
[Recover Account]


Browse Torrents

Poll


You must be logged in to view polls



Latest Torrents
Windy.City.Rehab.S...
- [Size: 354.87 MB]

Bobs.Burgers.S09E1...
- [Size: 347.84 MB]

Spider-Man.Into th...
- [Size: 2.26 GB]

The.Simpsons.S30E1...
- [Size: 544.03 MB]

The.Simpsons.S30E1...
- [Size: 301.38 MB]


Torrent Details For "Psycho.III.1986.1080p.BluRay.x264-GECKOS"

Psycho.III.1986.1080p.BluRay.x264-GECKOS

Download this torrent | Magnet Download
Health:
Seeds: 0
Leechers: 8
Completed:
Last Checked: 19-02-2019 08:41:16
External Torrent
Update Stats



Images Host

Poster
No poster


iMDB
Imdb Picture Original Title: Psycho III
Title: Psychose III
Year: 1986
Runtime: 93 minutes
Votes: 10043
Rating: 5.3/10
Language: English
Country: USA
All Genres: Horror, Mystery, Thriller
Plot Outline: Norman Bates falls in love with a nun - which makes his "mother" jealous - who has visited the Bates Motel alongside a drifter and a curious reporter.
Tagline: The most shocking of them all.
Director: Anthony Perkins
Writing By: Charles Edward Pogue,Robert Bloch,
Produced By: Hilton A. Green,Don Zepfel,
Music: Carter Burwell
Cast:
Anthony Perkins as Norman Bates
Diana Scarwid as Maureen
Jeff Fahey as Duane
Roberta Maxwell as Tracy
Hugh Gillin as Sheriff John Hunt
Lee Garlington as Myrna
Robert Alan Browne as Statler
Gary Bayer as Father Brian
Patience Cleveland as Sister Margaret
Juliette Cummins as Red


Watch-Free-HD     Download

Details
Name:Psycho.III.1986.1080p.BluRay.x264-GECKOS
Description:
MediaInfo

Video
ID                                       : 1
Format                                   : AVC
Format/Info                              : Advanced Video Codec
Format profile                           : [email protected]
Format settings, CABAC                   : Yes
Format settings, ReFrames                : 4 frames
Codec ID                                 : V_MPEG4/ISO/AVC
Duration                                 : 1 h 32 min
Bit rate                                 : 8 601 kb/s
Width                                    : 1 920 pixels
Height                                   : 1 040 pixels
Display aspect ratio                     : 1.85:1
Frame rate mode                          : Constant
Frame rate                               : 23.976 FPS
Color space                              : YUV
Chroma subsampling                       : 4:2:0
Bit depth                                : 8 bits
Scan type                                : Progressive
Bits/(Pixel*Frame)                       : 0.180
Stream size                              : 5.44 GiB (83%)
Title                                    : X264
Writing library                          : x264 core 133 r2334 a3ac64b
Encoding settings                        : cabac=1 / ref=4 / deblock=1:0:0 / analyse=0x3:0x133 / me=umh / subme=7 / psy=1 / psy_rd=1.00:0.00 / mixed_ref=1 / me_range=16 / chroma_me=1 / trellis=1 / 8x8dct=1 / cqm=0 / deadzone=21,11 / fast_pskip=0 / chroma_qp_offset=-2 / threads=36 / lookahead_threads=6 / sliced_threads=0 / nr=0 / decimate=1 / interlaced=0 / bluray_compat=0 / constrained_intra=0 / bframes=3 / b_pyramid=2 / b_adapt=1 / b_bias=0 / direct=1 / weightb=1 / open_gop=0 / weightp=2 / keyint=250 / keyint_min=23 / scenecut=40 / intra_refresh=0 / rc_lookahead=40 / rc=2pass / mbtree=1 / bitrate=8601 / ratetol=1.0 / qcomp=0.60 / qpmin=0 / qpmax=69 / qpstep=4 / cplxblur=20.0 / qblur=0.5 / ip_ratio=1.40 / aq=1:1.00
Language                                 : English
Default                                  : Yes
Forced                                   : No

Audio
ID                                       : 2
Format                                   : DTS
Format/Info                              : Digital Theater Systems
Mode                                     : 16
Format settings, Endianness              : Big
Codec ID                                 : A_DTS
Duration                                 : 1 h 32 min
Bit rate mode                            : Constant
Bit rate                                 : 1 509 kb/s
Channel(s)                               : 6 channels
Channel positions                        : Front: L C R, Side: L R, LFE
Sampling rate                            : 48.0 kHz
Frame rate                               : 93.750 FPS (512 spf)
Bit depth                                : 24 bits
Compression mode                         : Lossy
Stream size                              : 1 002 MiB (15%)
Title                                    : DTS
Language                                 : English
Default                                  : Yes
Forced                                   : No

Menu
00:00:00.000                             : en:00:00:00.000
00:09:18.558                             : en:00:09:18.558
00:16:55.640                             : en:00:16:55.640
00:25:28.152                             : en:00:25:28.152
00:32:33.952                             : en:00:32:33.952
00:39:30.994                             : en:00:39:30.994
00:46:30.788                             : en:00:46:30.788
00:53:01.178                             : en:00:53:01.178
01:00:27.249                             : en:01:00:27.249
01:06:41.998                             : en:01:06:41.998
01:14:11.447                             : en:01:14:11.447
01:22:37.578                             : en:01:22:37.578
Category:Movies > 1080P Bluray
Lang:English  English
Total Size:6.55 GB
Info Hash:b078ff4d5b6c09ea5b80f1ddf69fd8dd87062ddc
Added By:Agent47
Date Added:12-10-2017 14:23:30
Downloads:28

Ratings:Not Yet Rated (Log in to rate it)


Tracker:
http://tracker.trackerfix.com:80/announce


File List: 


Comments

No comments still posted

Top
Copyright 2018 DownloadHD -|- Page Generated In 0.347083 secs.
-|- RSS Feed -|- Feed Info