Login
Username:
Password:
[Signup]
[Recover Account]


Browse Torrents

Poll


You must be logged in to view polls



Latest Torrents
The.Simpsons.S30E1...
- [Size: 544.03 MB]

The.Simpsons.S30E1...
- [Size: 301.38 MB]

Family.Guy.S17E13....
- [Size: 203.86 MB]

Bobs.Burgers.S09E1...
- [Size: 217.96 MB]

Pitching.In.S01E02...
- [Size: 430.51 MB]


Torrent Details For "Swing.Away.2016.WEB-DL.XviD.MP3-FGT"

Swing.Away.2016.WEB-DL.XviD.MP3-FGT

Download this torrent | Magnet Download
Health:
Seeds: 0
Leechers: 0
Completed:
Last Checked: 17-02-2019 15:01:43
External Torrent
Update Stats



Images Host

Poster


iMDB
Imdb Picture Title: Swing Away
Year: 2016
Runtime: 98 minutes
Votes: 41
Rating: 7.7/10
Language: English, Greek
Country: USA
All Genres: Comedy, Drama, Sport
Plot Outline: Following a meltdown that leads to a suspension, professional golfer Zoe Papadopoulos travels to her grandparents' village in Greece to escape the harsh spotlight of the international ...
Tagline: Hope for nothing. Fear nothing. Swing Away.
Director: Michael A. Nickles
Writing By: Paul Robert Lingas,Julia Wall,George Elias Stephanopoulos,Paul Robert Lingas,
Produced By: Gustavo Neiva De Medeiros,Shannon Elizabeth,Thomas Hanna,Stamatios Tom Hiotis,Vinca Liane Jarrett Esq,Steven Kampmann,George Kiriakos,Kostas Lambropoulos,Paul Robert Lingas,Edward Maletis,Peter J. Pappas,John Paterakis,Alex Pattakos,Effie Skrobolas,George Elias Stephanopoulos,Giannis Zarganis,
Music: Tao Zervas
Cast:
Shannon Elizabeth as Zoe
John O'Hurley as Glenn
Karl Theobald as Thomas
Manos Gavras as Marcos
Renos Haralambidis as Panayiotis
Viktoria Miller as Stella
Hristos Sougaris as Father Anthony
Alexandros Mylonas as Haralambos
Olga Damani as Keti
Demetrios Saites as Antonopoulos
Trailers:
Swing Away


Watch-Free-HD     Download

Details
Name:Swing.Away.2016.WEB-DL.XviD.MP3-FGT
Description:
MediaInfo

Video
ID                                       : 0
Format                                   : MPEG-4 Visual
Format profile                           : [email protected]
Format settings, BVOP                    : No
Format settings, QPel                    : No
Format settings, GMC                     : No warppoints
Format settings, Matrix                  : Default (H.263)
Codec ID                                 : XVID
Codec ID/Hint                            : XviD
Duration                                 : 1 h 39 min
Bit rate                                 : 1 539 kb/s
Width                                    : 720 pixels
Height                                   : 304 pixels
Display aspect ratio                     : 2.40:1
Frame rate                               : 24.000 FPS
Color space                              : YUV
Chroma subsampling                       : 4:2:0
Bit depth                                : 8 bits
Scan type                                : Progressive
Compression mode                         : Lossy
Bits/(Pixel*Frame)                       : 0.293
Stream size                              : 1.07 GiB (88%)
Writing library                          : Lavc57.100.103

Audio
ID                                       : 1
Format                                   : MPEG Audio
Format version                           : Version 1
Format profile                           : Layer 3
Mode                                     : Joint stereo
Codec ID                                 : 55
Codec ID/Hint                            : MP3
Duration                                 : 1 h 39 min
Bit rate mode                            : Constant
Bit rate                                 : 192 kb/s
Channel(s)                               : 2 channels
Sampling rate                            : 48.0 kHz
Compression mode                         : Lossy
Stream size                              : 136 MiB (11%)
Alignment                                : Aligned on interleaves
Interleave, duration                     : 24  ms (0.58 video frame)
Interleave, preload duration             : 504  ms
Writing library                          : LAME3.99.5

 
 
 
 
 
 
Category:Movies > WEB-HD
Lang:English  English
Total Size:1.21 GB
Info Hash:cdd1a1637996b587fdadc273abc3e54013e1e454
Added By:Scene
Date Added:14-10-2017 16:40:55
Downloads:52

Ratings:Not Yet Rated (Log in to rate it)


Tracker:
http://tracker.trackerfix.com:80/announce


File List: 


Comments

No comments still posted

Top
Copyright 2018 DownloadHD -|- Page Generated In 0.096412 secs.
-|- RSS Feed -|- Feed Info