Login
Username:
Password:
[Signup]
[Recover Account]


Browse Torrents

Poll


You must be logged in to view polls



Latest Torrents
The.Simpsons.S30E1...
- [Size: 544.03 MB]

The.Simpsons.S30E1...
- [Size: 301.38 MB]

Family.Guy.S17E13....
- [Size: 203.86 MB]

Bobs.Burgers.S09E1...
- [Size: 217.96 MB]

Pitching.In.S01E02...
- [Size: 430.51 MB]


Torrent Details For "Bushwick.2017.720p.BluRay.x264.DTS-HDC"

Bushwick.2017.720p.BluRay.x264.DTS-HDC

Download this torrent | Magnet Download
Health:
Seeds: 2
Leechers: 0
Completed:
Last Checked: 19-02-2019 15:39:32
External Torrent
Update Stats



Images Host

Poster


iMDB
Imdb Picture Title: Bushwick
Year: 2017
Runtime: 94 minutes
Votes: 212
Rating: 6.3/10
Language: English
Country: USA
All Genres: Action, Adventure
Plot Outline: When a Texas military force invades their Brooklyn neighborhood, 20-year-old Lucy and war veteran Stupe must depend on each other to survive.
Director: Cary Murnion
Jonathan Milott
Writing By: Nick Damici,Graham Reznick,
Produced By: Dave Bautista,Jolian Blevins,Nate Bolotin,Adam Folk,Jonathan Meisner,Joseph Mensch,
Music: Aesop Rock
Plot:

BUSHWICK tells the story of twenty-year- old Lucy (Snow) and war veteran Stupe (Bautista). Texas is trying to secede from the U.S., and NYC is being used as a negotiation tool. Lucy meets Stupe after coming up from the subway into the military invasion of Brooklyn. Together they decide to cross the treacherous five blocks of Bushwick - littered with looters, local militias, the invading forces, and one crazy cousin - in order to get home and be reunited with Lucy's grandmother.

When a Texas military force invades their Brooklyn neighborhood, 20-year-old Lucy and war veteran Stupe must depend on each other to survive.


Cast:
Dave Bautista as Stupe
Brittany Snow as Lucy
Christian Navarro as Eduardo
Arturo Castro as Jose
Jeremie Harris as JP
Angelic Zambrana as Belinda
Jay Hieron as Resistance fighter
Leo Minaya as Hector
Jeff Lima as Gregory
Alex Breaux as Lt. Quaid
Trailers:
Official Trailer


Watch-Free-HD     Download

Details
Name:Bushwick.2017.720p.BluRay.x264.DTS-HDC
Description:
MediaInfo

Video
ID                                       : 1
Format                                   : AVC
Format/Info                              : Advanced Video Codec
Format profile                           : [email protected]
Format settings, CABAC                   : Yes
Format settings, ReFrames                : 12 frames
Codec ID                                 : V_MPEG4/ISO/AVC
Duration                                 : 1 h 33 min
Bit rate                                 : 6 514 kb/s
Width                                    : 1 280 pixels
Height                                   : 534 pixels
Display aspect ratio                     : 2.40:1
Frame rate mode                          : Constant
Frame rate                               : 23.976 (24000/1001) FPS
Color space                              : YUV
Chroma subsampling                       : 4:2:0
Bit depth                                : 8 bits
Scan type                                : Progressive
Bits/(Pixel*Frame)                       : 0.398
Stream size                              : 4.26 GiB (80%)
Writing library                          : x264 core 148 r2665kMod a01e339
Encoding settings                        : cabac=1 / ref=12 / deblock=1:-3:-3 / analyse=0x3:0x133 / me=umh / subme=11 / psy=1 / fade_compensate=0.00 / psy_rd=1.00:0.00 / mixed_ref=1 / me_range=48 / chroma_me=1 / trellis=2 / 8x8dct=1 / cqm=0 / deadzone=21,11 / fast_pskip=0 / chroma_qp_offset=-2 / threads=17 / lookahead_threads=4 / sliced_threads=0 / nr=0 / decimate=0 / interlaced=0 / bluray_compat=0 / constrained_intra=0 / fgo=0 / bframes=11 / b_pyramid=2 / b_adapt=2 / b_bias=0 / direct=3 / weightb=1 / open_gop=0 / weightp=2 / keyint=240 / keyint_min=24 / scenecut=40 / intra_refresh=0 / rc_lookahead=40 / rc=crf / mbtree=0 / crf=19.4000 / qcomp=0.70 / qpmin=0 / qpmax=69 / qpstep=4 / vbv_maxrate=40000 / vbv_bufsize=30000 / crf_max=0.0 / nal_hrd=none / filler=0 / ip_ratio=1.20 / pb_ratio=1.20 / aq=3:0.85
Language                                 : English
Default                                  : Yes
Forced                                   : No

Audio
ID                                       : 2
Format                                   : DTS
Format/Info                              : Digital Theater Systems
Mode                                     : 16
Format settings, Endianness              : Big
Codec ID                                 : A_DTS
Duration                                 : 1 h 33 min
Bit rate mode                            : Constant
Bit rate                                 : 1 509 kb/s
Channel(s)                               : 6 channels
Channel positions                        : Front: L C R, Side: L R, LFE
Sampling rate                            : 48.0 kHz
Frame rate                               : 93.750 FPS (512 spf)
Bit depth                                : 24 bits
Compression mode                         : Lossy
Stream size                              : 1 011 MiB (18%)
Language                                 : English
Default                                  : Yes
Forced                                   : No

Text
ID                                       : 3
Format                                   : UTF-8
Codec ID                                 : S_TEXT/UTF8
Codec ID/Info                            : UTF-8 Plain Text
Language                                 : English
Default                                  : Yes
Forced                                   : No

 
 
 
 
 
 
Category:Movies > 720P Bluray
Lang:English  English
Total Size:5.36 GB
Info Hash:6cf0988a080e395c4b3d8f1aea5278d0fa17c41e
Added By:Scene
Date Added:14-10-2017 16:47:18
Downloads:67

Ratings:Not Yet Rated (Log in to rate it)


Tracker:
http://tracker.trackerfix.com:80/announce


File List: 


Comments

No comments still posted

Top
Copyright 2018 DownloadHD -|- Page Generated In 0.353916 secs.
-|- RSS Feed -|- Feed Info