Login
Username:
Password:
[Signup]
[Recover Account]


Browse Torrents

Poll


You must be logged in to view polls



Latest Torrents
Suspiria 2018 1080...
- [Size: 4.40 GB]

Bohemian Rhapsody ...
- [Size: 4.41 GB]

The.Kitchen.S20E02...
- [Size: 687.61 MB]

What Men Want (201...
- [Size: 851.39 MB]

What Men Want 2019...
- [Size: 680.15 MB]


Torrent Details For "Dangal 2016 1080p Bluray 10bit x265 7.1 AAC Multi HEVC Natty"

Dangal 2016 1080p Bluray 10bit x265 7.1 AAC Multi HEVC Natty

Download this torrent | Magnet Download
Health:
Seeds: 0
Leechers: 5
Completed:
Last Checked: 12-02-2019 21:27:22
External Torrent
Update Stats



Images Host

Poster


iMDB
Imdb Picture Title: Dangal
Year: 2016
Runtime: 161 minutes
Votes: 45577
Rating: 8.8/10
Language: Hindi
Country: India
All Genres: Action, Biography, Drama, Sport
Plot Outline: Former wrestler Mahavir Singh Phogat and his two wrestler daughters struggle towards glory at the Commonwealth Games in the face of societal oppression.
Director: Nitesh Tiwari
Writing By: Piyush Gupta,Shreyas Jain,Nikhil Mehrotra,Nitesh Tiwari,
Produced By: Vishesh Agrawal,Nishith Dadhich,Siddharth Roy Kapur,Aamir Khan,Alan McAlex,Amrita Pandey,Kiran Rao,Srinivas Rao,Navmeet Singh,
Music: Pritam Chakraborty
Plot:

Biopic of Mahavir Singh Phogat, who taught wrestling to his daughters Babita Kumari and Geeta Phogat. Geeta Phogat was India's first female wrestler to win at the 2010 Commonwealth Games, where she won the gold medal (55 kg) while her sister Babita Kumari won the silver (52 kg).

- Written by Dibyayan_Chakravorty

Dangal is a biography of a real life patriotic fighter Mahavir Singh Phogat who raises his daughters and evolves them into World Class Fighters. The movie begins with a crochy brawl between Mahavir (Aamir Khan) and his colleague who was also former wrestler, thus embalming the terrific Dangal Theme, discovering Mahavir's past life of a Wrestler. Mahavir admires to make his dreams come true by his sons but on contrary, four daughters take birth. They come with a complaint of beating down a boy in their locality. Hence Mahavir hopes they would be future Wrestlers. So he trains his daughters Gita and Babita, thus proving they're no less than a professional male wrestler. After a long struggle, Gita enters the National level Wrestling and acquires victory. When she is up to the Internationals, she opts to get trained from the NSA(National Sports Academy) where a coach mis-trains Gita, due to which she deliberately fails every match she attempts. Her sister Babita also attains an age to get into Wresting. Now, Mahavir plans to train both by his own norms. Finally, Gita defeats an Australian Wrestler by following the predominant path of her father, not of the coach. The movie is par excellent, enridges Women Empowerment in the Nation. Aamir Khan once again proves to be a Living Gem in the History of Indian Cinema. For more reviews follow @ramsay_cullen.di.caprio on Instagram

- Written by Srivathsavan Iyengar

Mahavir Singh Phogat is a former wrestling champion had to quit the sport due to his family pressure as it was not helping his family financially.He only dreams that his son should win Gold Medal for India in wrestling but back to back he has four daughter's.Mahavir feels his dream cant be complete and starts staying away from the sport,while his daughter Geeta and Babita are growing the notices that they have quality of being wrestlers and starts training them,Geeta and Babita have to get a hard training and start to dislike their father for this but they realize that their father is doing this for their betterment and take the sport seriously.Geeta soon becomes a a known wrestler in the state and wins Junior International.Geeta further has to Patiala for further training to participate in common wealth games where she has a new coach Pramod Kadam.Meanwhile Babita makes her name at Junior level.Geeta believes her coach's training is better than her father which makes Mahavir very depressed.

- Written by [email protected]

Former wrestler Mahavir Singh Phogat and his two wrestler daughters struggle towards glory at the Commonwealth Games in the face of societal oppression.

- Written by Ishaan Gulati
Cast:
Aamir Khan as Mahavir Singh Phogat
Sakshi Tanwar as Daya Kaur
Fatima Sana Shaikh as Geeta Phogat
Sanya Malhotra as Babita Kumari
Aparshakti Khurana as Omkar
Zaira Wasim as Young Geeta
Suhani Bhatnagar as Young Babita
Ritwik Sahore as Young Omkar
Girish Kulkarni as Coach Pramod Kadam
Anurag Arora as Mahavir's Brother
Trailers:
Official Trailer


Watch-Free-HD     Download

Details
Name:Dangal 2016 1080p Bluray 10bit x265 7.1 AAC Multi HEVC Natty
Description:
Dangal 2016 in 1080p, encoded with x265 (HEVC) and AAC 7.1 Hindi + 5.1 Tamil + 5.1 Telugu + 2.0 Hindi Commentary  + 5.1 English Commentary Audio with multiple subtitles!
Encoded using the time consuming Slow Preset with 2 pass, 10 bit color at 5515 kbps, from an Untouched Bluray source, for the highest quality possible.



PLEASE SEED IF YOU WANT ME TO UPLOAD MORE:Qpirate:

Quote:

RECOMMENDED PLAYER: POTPLAYER

Source: Untouched Bluray by DownloadHD

Screenshots



















Encode Media Info:

Quote:

General
Complete name                            : Dangal 2016 1080p Bluray 10bit x265 7.1 AAC Multi HEVC Natty.mkv
Format                                   : Matroska
Format version                           : Version 4 / Version 2
File size                                : 6.20 GiB
Duration                                 : 2 h 41 min
Overall bit rate                         : 5 515 kb/s
Movie name                               : Dangal
Encoded date                             : UTC 2017-06-16 23:28:05
Writing application                      : mkvmerge v12.0.0 ('Trust / Lust') 64bit
Writing library                          : libebml v1.3.4 + libmatroska v1.4.5
Cover                                    : Yes
Attachments                              : cover.jpg

Video
ID                                       : 1
Format                                   : HEVC
Format/Info                              : High Efficiency Video Coding
Format profile                           : Main [email protected]@Main
Codec ID                                 : V_MPEGH/ISO/HEVC
Duration                                 : 2 h 41 min
Bit rate                                 : 3 499 kb/s
Width                                    : 1 920 pixels
Height                                   : 804 pixels
Display aspect ratio                     : 2.40:1
Frame rate mode                          : Constant
Frame rate                               : 24.000 FPS
Color space                              : YUV
Chroma subsampling                       : 4:2:0
Bit depth                                : 10 bits
Bits/(Pixel*Frame)                       : 0.094
Stream size                              : 3.94 GiB (63%)
Writing library                          : x265 2.4+39-cad77d34fec1:[Windows][MSVC 1910][64 bit] 10bit
Encoding settings                        : cpuid=1173503 / frame-threads=2 / numa-pools=4 / wpp / no-pmode / no-pme / no-psnr / no-ssim / log-level=2 / input-csp=1 / input-res=1920x804 / interlace=0 / total-frames=231864 / level-idc=0 / high-tier=1 / uhd-bd=0 / ref=6 / no-allow-non-conformance / no-repeat-headers / annexb / no-aud / no-hrd / info / hash=0 / no-temporal-layers / open-gop / min-keyint=24 / keyint=400 / bframes=8 / b-adapt=2 / b-pyramid / bframe-bias=0 / rc-lookahead=100 / lookahead-slices=5 / scenecut=40 / no-intra-refresh / ctu=32 / min-cu-size=8 / no-rect / no-amp / max-tu-size=16 / tu-inter-depth=1 / tu-intra-depth=1 / limit-tu=0 / rdoq-level=2 / dynamic-rd=0.00 / no-ssim-rd / signhide / no-tskip / nr-intra=0 / nr-inter=0 / no-constrained-intra / no-strong-intra-smoothing / max-merge=2 / limit-refs=3 / limit-modes / me=3 / subme=5 / merange=57 / temporal-mvp / weightp / no-weightb / no-analyze-src-pics / deblock=-3:0 / no-sao / no-sao-non-deblock / rd=4 / no-early-skip / rskip / no-fast-intra / no-tskip-fast / no-cu-lossless / no-b-intra / rdpenalty=0 / psy-rd=2.00 / psy-rdoq=8.00 / no-rd-refine / analysis-mode=0 / no-lossless / cbqpoffs=0 / crqpoffs=0 / rc=abr / bitrate=3501 / qcomp=0.90 / qpstep=4 / stats-write=0 / stats-read=2 / cplxblur=20.0 / qblur=0.5 / ipratio=1.40 / pbratio=1.30 / aq-mode=3 / aq-strength=1.00 / cutree / zone-count=0 / no-strict-cbr / qg-size=16 / no-rc-grain / qpmax=69 / qpmin=0 / sar=0 / overscan=0 / videoformat=5 / range=0 / colorprim=1 / transfer=1 / colormatrix=1 / chromaloc=0 / display-window=0 / max-cll=0,0 / min-luma=0 / max-luma=1023 / log2-max-poc-lsb=8 / vui-timing-info / vui-hrd-info / slices=1 / opt-qp-pps / opt-ref-list-length-pps / multi-pass-opt-rps / scenecut-bias=0.05 / no-opt-cu-delta-qp / aq-motion / no-hdr / no-hdr-opt / no-dhdr10-opt / refine-level=9 / scale-factor=0 / refine-intra=0 / refine-inter=0 / refine-mv=0 / no-limit-sao / ctu-info=0
Default                                  : Yes
Forced                                   : No
Color range                              : Limited
Color primaries                          : BT.709
Transfer characteristics                 : BT.709
Matrix coefficients                      : BT.709

Audio #1
ID                                       : 2
Format                                   : AAC
Format/Info                              : Advanced Audio Codec
Format profile                           : LC
Codec ID                                 : A_AAC
Duration                                 : 2 h 41 min
Bit rate                                 : 624 kb/s
Channel(s)                               : 8 channels
Channel positions                        : Front: L C R, Side: 4, LFE
Sampling rate                            : 48.0 kHz
Frame rate                               : 46.875 FPS (1024 spf)
Compression mode                         : Lossy
Delay relative to video                  : 20 ms
Stream size                              : 718 MiB (11%)
Language                                 : Hindi
Default                                  : Yes
Forced                                   : No

Audio #2
ID                                       : 3
Format                                   : AAC
Format/Info                              : Advanced Audio Codec
Format profile                           : LC
Codec ID                                 : A_AAC
Duration                                 : 2 h 41 min
Bit rate                                 : 421 kb/s
Channel(s)                               : 6 channels
Channel positions                        : Front: L C R, Side: L R, LFE
Sampling rate                            : 48.0 kHz
Frame rate                               : 46.875 FPS (1024 spf)
Compression mode                         : Lossy
Delay relative to video                  : 20 ms
Stream size                              : 485 MiB (8%)
Language                                 : Tamil
Default                                  : No
Forced                                   : No

Audio #3
ID                                       : 4
Format                                   : AAC
Format/Info                              : Advanced Audio Codec
Format profile                           : LC
Codec ID                                 : A_AAC
Duration                                 : 2 h 41 min
Bit rate                                 : 427 kb/s
Channel(s)                               : 6 channels
Channel positions                        : Front: L C R, Side: L R, LFE
Sampling rate                            : 48.0 kHz
Frame rate                               : 46.875 FPS (1024 spf)
Compression mode                         : Lossy
Delay relative to video                  : 20 ms
Stream size                              : 492 MiB (8%)
Language                                 : Telugu
Default                                  : No
Forced                                   : No

Audio #4
ID                                       : 5
Format                                   : AAC
Format/Info                              : Advanced Audio Codec
Format profile                           : LC
Codec ID                                 : A_AAC
Duration                                 : 2 h 41 min
Bit rate                                 : 132 kb/s
Channel(s)                               : 2 channels
Channel positions                        : Front: L R
Sampling rate                            : 48.0 kHz
Frame rate                               : 46.875 FPS (1024 spf)
Compression mode                         : Lossy
Delay relative to video                  : 20 ms
Stream size                              : 152 MiB (2%)
Language                                 : Hindi
Default                                  : No
Forced                                   : No

Audio #5
ID                                       : 6
Format                                   : AAC
Format/Info                              : Advanced Audio Codec
Format profile                           : LC
Codec ID                                 : A_AAC
Duration                                 : 2 h 41 min
Bit rate                                 : 384 kb/s
Channel(s)                               : 6 channels
Channel positions                        : Front: L C R, Side: L R, LFE
Sampling rate                            : 48.0 kHz
Frame rate                               : 46.875 FPS (1024 spf)
Compression mode                         : Lossy
Delay relative to video                  : 20 ms
Stream size                              : 448 MiB (7%)
Language                                 : English
Default                                  : No
Forced                                   : No

Text
ID                                       : 7
Format                                   : PGS
Muxing mode                              : zlib
Codec ID                                 : S_HDMV/PGS
Codec ID/Info                            : Picture based subtitle format used on BDs/HD-DVDs
Duration                                 : 2 h 33 min
Bit rate                                 : 17.7 kb/s
Count of elements                        : 3904
Stream size                              : 19.4 MiB (0%)
Language                                 : English
Default                                  : Yes
Forced                                   : No

Category:Movies > HEVC
Lang:Hindi
Total Size:7.42 GB
Info Hash:762a8299a51266cfffec5bf1e4f7e2dd048e1b66
Added By:Natty
Date Added:18-10-2017 23:00:24
Downloads:185

Ratings:Not Yet Rated (Log in to rate it)


Tracker:
udp://tracker.opentrackr.org:1337/announce


File List: 


Comments

No comments still posted

Top
Copyright 2018 DownloadHD -|- Page Generated In 1.338697 secs.
-|- RSS Feed -|- Feed Info