Login
Username:
Password:
[Signup]
[Recover Account]


Browse Torrents

Poll


You must be logged in to view polls



Latest Torrents
The.Simpsons.S30E1...
- [Size: 544.03 MB]

The.Simpsons.S30E1...
- [Size: 301.38 MB]

Family.Guy.S17E13....
- [Size: 203.86 MB]

Bobs.Burgers.S09E1...
- [Size: 217.96 MB]

Pitching.In.S01E02...
- [Size: 430.51 MB]


Torrent Details For "Force 2 2016 1080p Bluray 10bit x265 5.1 AAC HEVC Natty"

Force 2 2016 1080p Bluray 10bit x265 5.1 AAC HEVC Natty

Download this torrent | Magnet Download
Health:
Seeds: 0
Leechers: 4
Completed:
Last Checked: 10-01-2019 08:12:49
External Torrent
Update Stats



Images Host

Poster


iMDB
Imdb Picture Title: Force 2
Year: 2016
Runtime: 127 minutes
Votes: 2902
Rating: 6.4/10
Language: Hindi
Country: India
All Genres: Action, Adventure, Crime, Mystery, Thriller
Plot Outline: ACP Yashvardhan teams up with RAW Agent KK to bring down the mole within RAW.
Director: Abhinay Deo
Writing By: Jasmeet K. Reen,Parveez Sheikh,
Produced By: John Abraham,György Czutor,Sheel Kumar,Jaswinder Pabbla,Aashin A. Shah,Vipul Amrutlal Shah,Adi Sharmaa,
Music: Prasad Sashle
Plot:

ACP Yashvardhan teams up with RAW Agent KK to bring down the mole within RAW.

- Written by amit1717
Cast:
John Abraham as Yashwardhan
Sonakshi Sinha as KK
Tahir Raj Bhasin as Shiv
Adil Hussain as Brijesh Yadav (HRD Minister)
Björn Freiberg as Sniper
Paras Arora as
Raj Babbar as Zonal Director
Mohnish Bahl as In Phoyograph
Tsogbaatar Batzorig as Chinese Agent
Genelia D'Souza as Maya


Watch-Free-HD     Download

Details
Name:Force 2 2016 1080p Bluray 10bit x265 5.1 AAC HEVC Natty
Description:
Force 2016 in 1080p, encoded with x265 (HEVC) and AAC 5.1 Hindi Audio with Multiple Subtitles!

Encoded using the time consuming Slow Preset with 2 pass, 10 bit color at 4550 kbps, from an Untouched Bluray source, for the highest quality possible.



PLEASE SEED IF YOU WANT ME TO UPLOAD MORE:Qpirate:

Quote:

RECOMMENDED PLAYER: POTPLAYER

Source: Untouched Bluray by DownloadHD

Screenshots







Encode Media Info:

Quote:

General
Complete name                            : Force 2 2016 1080p Bluray 10bit x265 5.1 AAC HEVC Natty.mkv
Format                                   : Matroska
Format version                           : Version 4 / Version 2
File size                                : 3.94 GiB
Duration                                 : 2 h 4 min
Overall bit rate                         : 4 541 kb/s
Encoded date                             : UTC 2017-07-19 20:27:50
Writing application                      : mkvmerge v13.0.0 ('The Juggler') 64bit
Writing library                          : libebml v1.3.4 + libmatroska v1.4.5

Video
ID                                       : 1
Format                                   : HEVC
Format/Info                              : High Efficiency Video Coding
Format profile                           : Main [email protected]@Main
Codec ID                                 : V_MPEGH/ISO/HEVC
Duration                                 : 2 h 4 min
Bit rate                                 : 4 125 kb/s
Width                                    : 1 920 pixels
Height                                   : 816 pixels
Display aspect ratio                     : 2.35:1
Frame rate mode                          : Constant
Frame rate                               : 24.000 FPS
Color space                              : YUV
Chroma subsampling                       : 4:2:0
Bit depth                                : 10 bits
Bits/(Pixel*Frame)                       : 0.110
Stream size                              : 3.58 GiB (91%)
Writing library                          : x265 2.3+17-6e348252e902:[Windows][GCC 6.3.0][64 bit] 10bit
Encoding settings                        : cpuid=1173503 / frame-threads=5 / numa-pools=14,14 / wpp / no-pmode / no-pme / no-psnr / no-ssim / log-level=2 / input-csp=1 / input-res=1920x816 / interlace=0 / total-frames=178945 / level-idc=0 / high-tier=1 / uhd-bd=0 / ref=3 / no-allow-non-conformance / no-repeat-headers / annexb / no-aud / no-hrd / info / hash=0 / no-temporal-layers / open-gop / min-keyint=24 / keyint=250 / bframes=4 / b-adapt=2 / b-pyramid / bframe-bias=0 / rc-lookahead=20 / lookahead-slices=5 / scenecut=40 / no-intra-refresh / ctu=64 / min-cu-size=8 / no-rect / no-amp / max-tu-size=32 / tu-inter-depth=1 / tu-intra-depth=1 / limit-tu=0 / rdoq-level=0 / dynamic-rd=0.00 / signhide / no-tskip / nr-intra=0 / nr-inter=0 / no-constrained-intra / no-strong-intra-smoothing / max-merge=2 / limit-refs=3 / no-limit-modes / me=3 / subme=5 / merange=57 / temporal-mvp / weightp / no-weightb / no-analyze-src-pics / deblock=-3:-3 / no-sao / no-sao-non-deblock / rd=3 / no-early-skip / no-rskip / no-fast-intra / no-tskip-fast / no-cu-lossless / no-b-intra / rdpenalty=0 / psy-rd=3.50 / psy-rdoq=0.00 / no-rd-refine / analysis-mode=0 / no-lossless / cbqpoffs=0 / crqpoffs=0 / rc=abr / bitrate=4132 / qcomp=0.60 / qpstep=1 / stats-write=0 / stats-read=2 / cplxblur=20.0 / qblur=0.5 / ipratio=1.10 / pbratio=1.00 / aq-mode=0 / aq-strength=0.00 / no-cutree / zone-count=0 / no-strict-cbr / qg-size=64 / rc-grain / qpmax=69 / qpmin=0 / sar=1 / overscan=0 / videoformat=5 / range=0 / colorprim=1 / transfer=1 / colormatrix=1 / chromaloc=0 / display-window=0 / max-cll=0,0 / min-luma=0 / max-luma=1023 / log2-max-poc-lsb=8 / vui-timing-info / vui-hrd-info / slices=1 / opt-qp-pps / opt-ref-list-length-pps / no-multi-pass-opt-rps / scenecut-bias=0.05 / no-opt-cu-delta-qp / no-aq-motion / no-hdr / no-hdr-optrefine-level=5
Default                                  : Yes
Forced                                   : No
Color range                              : Limited
Color primaries                          : BT.709
Transfer characteristics                 : BT.709
Matrix coefficients                      : BT.709

Audio
ID                                       : 2
Format                                   : AAC
Format/Info                              : Advanced Audio Codec
Format profile                           : LC
Codec ID                                 : A_AAC
Duration                                 : 2 h 4 min
Bit rate                                 : 410 kb/s
Channel(s)                               : 6 channels
Channel positions                        : Front: L C R, Side: L R, LFE
Sampling rate                            : 48.0 kHz
Frame rate                               : 46.875 FPS (1024 SPF)
Compression mode                         : Lossy
Delay relative to video                  : 20 ms
Stream size                              : 364 MiB (9%)
Language                                 : Hindi
Default                                  : No
Forced                                   : No

Text
ID                                       : 3
Format                                   : VobSub
Muxing mode                              : zlib
Codec ID                                 : S_VOBSUB
Codec ID/Info                            : Picture based subtitle format used on DVDs
Duration                                 : 1 h 59 min
Bit rate                                 : 5 864 b/s
Count of elements                        : 1172
Stream size                              : 4.99 MiB (0%)
Language                                 : English
Default                                  : No
Forced                                   : No

Category:Movies > HEVC
Lang:Hindi
Total Size:3.94 GB
Info Hash:32c2a1ed66cf10b9096d7a69a15b9393a7275506
Added By:Natty
Date Added:18-10-2017 23:05:20
Downloads:302

Ratings:Not Yet Rated (Log in to rate it)


Tracker:
udp://tracker.opentrackr.org:1337/announce


File List: 


Comments

No comments still posted

Top
Copyright 2018 DownloadHD -|- Page Generated In 1.071797 secs.
-|- RSS Feed -|- Feed Info