Login
Username:
Password:
[Signup]
[Recover Account]


Browse Torrents

Poll


You must be logged in to view polls



Latest Torrents
The.Goldbergs.2013...
- [Size: 311.54 MB]

Unspeakable.S01E07...
- [Size: 762.42 MB]

Drunk.History.S06E...
- [Size: 206.38 MB]

Burden.of.Truth.S0...
- [Size: 360.40 MB]

Drunk.History.S06E...
- [Size: 208.36 MB]


Torrent Details For "The.Transporter.2002.720p.Bluray.x264.Dual.Audio.{Hindi.Org.DD.2.0-Eng}-maverick"

The.Transporter.2002.720p.Bluray.x264.Dual.Audio.{Hindi.Org.DD.2.0-Eng}-maverick

Download this torrent | Magnet Download
Health:
Seeds: 0
Leechers: 2
Completed: 109 
Last Checked: 08-01-2019 09:21:10
External Torrent
Update Stats



Images Host

Poster


iMDB
Imdb Picture Title: The Transporter
Year: 2002
Runtime: 92 minutes
Votes: 248361
Rating: 6.8/10
Language: English, French, Mandarin
Country: France, USA
All Genres: Action, Crime, Thriller
Plot Outline: Frank is hired to "transport" packages for unknown clients and has made a very good living doing so. But when asked to move a package that begins moving, complications arise.
Tagline: Rules are made to be broken
Director: Louis Leterrier
Corey Yuen
Writing By: Luc Besson,Robert Mark Kamen,
Produced By: Luc Besson,Steven Chasman,David Lai,Alfred Lot,Mehdi Sayah,
Music: Stanley Clarke
Plot:

Ex-Special Forces operator Frank Martin lives what seems to be a quiet life along the French Mediterranean, hiring himself out as a mercenary "transporter" who moves goods--human or otherwise--from one place to another. No questions asked. Carrying out mysterious and sometimes dangerous tasks in his tricked-out BMW, Frank adheres to a strict set of rules, which he never breaks. Rule One: Never change the deal. Rule Two: No names--Frank doesn't want to know whom he's working for, or what he's transporting. Rule Three: never look in the package. Frank's newest transport seems no different from the countless ones he's done in the past. He's been hired by an American known only as "Wall Street" to make a delivery; but when Frank stops along the route, he notices his package is moving. Violating Rule Three, Frank looks inside the bag, finding its contents to be a beautiful, gagged woman. Frank's steadfast adherence to his other two rules--which make up his basic code of survival--also quickly fails, hurtling him and his new companion on a road leading to shocking secrets, deadly complications, and the last thing that Frank ever expected to come to believe: that rules are made to be broken.

- Written by Anthony Pereyra {[email protected]}

Ex-Special Forces operator Frank Martin lives what seems to be a quiet life along the French Mediterranean, hiring himself out as a mercenary "transporter" who moves goods - human or otherwise - from one place to another. No questions asked. Frank's newest transport seems no different from the countless ones he's done in the past. He has been hired by an American known only as "Wall Street" (see Rule Two) to make a delivery, but when Frank stops along route, he notices his "package" is moving. Violating his own personal rules, Frank looks inside the bag, finding its contents to be a beautiful, gagged woman.

- Written by Anonymous

Frank Martin is a former soldier now living a solitary existence in France, Frank runs a private business as a "Transporter" a hired criminal whose job is to transport cargo, packages and passengers without question. Playing by the rules, Frank is the best in the business and he has never broken the rules. Until, Frank is hired by an American criminal known as "Wall Street" to deliver a package. Frank's curiosity leads him to break the rules, and he discovers the package he is delivering to Wall Street is a Chinese woman named Lai. Learning that Frank broke the rules and learn about Lai, Wall Street sends his mercenaries to assassinate him. With his own life in danger, Frank takes it upon himself to protect not only himself, but Lai, as he agrees to help Lai rescue enslaved people from China, who are being smuggled into France by Wall Street helped by Lai's father.

- Written by Daniel Williamson

Frank is hired to "transport" packages for unknown clients and has made a very good living doing so. But when asked to move a package that begins moving, complications arise.

- Written by matt sheppard
Cast:
Jason Statham as Frank Martin
Qi Shu as Lai
Matt Schulze as Wall Street
François Berléand as Inspector Tarconi
Ric Young as Mr. Kwai
Doug Rand as Leader
Didier Saint Melin as Boss
Tonio Descanvelle as Thug 1
Laurent Desponds as Thug 2
Matthieu Albertini as Thug 3


Watch-Free-HD     Download

Details
Name:The.Transporter.2002.720p.Bluray.x264.Dual.Audio.{Hindi.Org.DD.2.0-Eng}-maverick
Description:
General
Complete name                            : The.Transporter.2002.720p.Bluray.x264.Dual.Audio.{Hindi.Org.DD.2.0-Eng}-maverick.mkv
Format                                   : Matroska
Format version                           : Version 4 / Version 2
File size                                : 1.10 GiB
Duration                                 : 1h 32mn
Overall bit rate                         : 1 700 Kbps

Video
ID                                       : 1
Format                                   : AVC
Format/Info                              : Advanced Video Codec
Format profile                           : [email protected]
Format settings, CABAC                   : Yes
Format settings, ReFrames                : 5 frames
Codec ID                                 : V_MPEG4/ISO/AVC
Duration                                 : 1h 32mn
Bit rate                                 : 1 288 Kbps
Width                                    : 1 280 pixels
Height                                   : 544 pixels
Display aspect ratio                     : 2.35:1
Frame rate mode                          : Constant
Frame rate                               : 23.976 (24000/1001) fps
Color space                              : YUV
Chroma subsampling                       : 4:2:0
Bit depth                                : 8 bits
Scan type                                : Progressive
Bits/(Pixel*Frame)                       : 0.077
Stream size                              : 849 MiB (75%)
Title                                    : maverick
Writing library                          : x264 core 148 r2708 86b7198
Language                                 : English
Default                                  : Yes
Forced                                   : Yes
Color range                              : Limited
Color primaries                          : BT.709
Transfer characteristics                 : BT.709
Matrix coefficients                      : BT.709

Audio #1
ID                                       : 2
Format                                   : AC-3
Format/Info                              : Audio Coding 3
Mode extension                           : CM (complete main)
Format settings, Endianness              : Big
Codec ID                                 : A_AC3
Duration                                 : 1h 32mn
Bit rate mode                            : Constant
Bit rate                                 : 224 Kbps
Channel(s)                               : 2 channels
Channel positions                        : Front: L R
Sampling rate                            : 48.0 KHz
Frame rate                               : 31.250 fps (1536 spf)
Compression mode                         : Lossy
Delay relative to video                  : -21ms
Stream size                              : 148 MiB (13%)
Title                                    : maverick
Language                                 : Hindi
Default                                  : Yes
Forced                                   : Yes

Audio #2
ID                                       : 3
Format                                   : AAC
Format/Info                              : Advanced Audio Codec
Format profile                           : LC
Codec ID                                 : A_AAC
Duration                                 : 1h 32mn
Bit rate                                 : 192 Kbps
Channel(s)                               : 6 channels
Channel positions                        : Front: L C R, Side: L R, LFE
Sampling rate                            : 48.0 KHz
Frame rate                               : 46.875 fps (1024 spf)
Compression mode                         : Lossy
Delay relative to video                  : -21ms
Stream size                              : 127 MiB (11%)
Title                                    : maverick
Language                                 : English
Default                                  : No
Forced                                   : No


Category:Movies > Hollywood Dub
Lang:Hindi
Total Size:1.11 GB
Info Hash:43ba6394988de8c5e6607d7bb8627a639a91d048
Added By:Sarawan
Date Added:13-05-2017 19:54:52
Downloads:319

Ratings:Not Yet Rated (Log in to rate it)


Tracker:
udp://9.rarbg.me:2750/announce


File List: 


Comments

No comments still posted

Top
Copyright 2018 DownloadHD -|- Page Generated In 1.058210 secs.
-|- RSS Feed -|- Feed Info