Login
Username:
Password:
[Signup]
[Recover Account]


Browse Torrents

Poll


You must be logged in to view polls



Latest Torrents
Bobs.Burgers.S09E1...
- [Size: 347.84 MB]

Spider-Man.Into th...
- [Size: 2.26 GB]

The.Simpsons.S30E1...
- [Size: 544.03 MB]

The.Simpsons.S30E1...
- [Size: 301.38 MB]

Family.Guy.S17E13....
- [Size: 203.86 MB]


Torrent Details For "Armed Response 2017 720p BluRay x264 AAC 5.1 ESub"

Armed Response 2017 720p BluRay x264 AAC 5.1 ESub

Download this torrent | Magnet Download
Health:
Seeds: 0
Leechers: 1
Completed: 53,334 
Last Checked: 02-02-2019 12:52:12
External Torrent
Update Stats



Images Host

Poster


Watch-Free-HD     Download

Details
Name:Armed Response 2017 720p BluRay x264 AAC 5.1 ESub
Description:


General
Format                                   : Matroska
Format version                           : Version 4 / Version 2
File size                                : 1.17 GiB
Duration                                 : 1 h 33 min
Overall bit rate                         : 1 785 kb/s

Video
ID                                       : 1
Format                                   : AVC
Format/Info                              : Advanced Video Codec
Format profile                           : [email protected]
Format settings                          : CABAC / 4 Ref Frames
Format settings, CABAC                   : Yes
Format settings, RefFrames               : 4 frames
Codec ID                                 : V_MPEG4/ISO/AVC
Duration                                 : 1 h 33 min
Bit rate                                 : 1 500 kb/s
Width                                    : 1 280 pixels
Height                                   : 688 pixels
Display aspect ratio                     : 1.85:1
Frame rate mode                          : Constant
Frame rate                               : 23.976 (23976/1000) FPS
Color space                              : YUV
Chroma subsampling                       : 4:2:0
Bit depth                                : 8 bits
Scan type                                : Progressive
Bits/(Pixel*Frame)                       : 0.071
Stream size                              : 1 023 MiB (85%)
Writing library                          : x264 core 148 r2643 5c65704
Default                                  : Yes
Forced                                   : No

Audio
ID                                       : 2
Format                                   : AAC
Format/Info                              : Advanced Audio Codec
Format profile                           : LC
Codec ID                                 : A_AAC-2
Duration                                 : 1 h 33 min
Bit rate                                 : 256 kb/s
Channel(s)                               : 6 channels
Channel positions                        : Front: L C R, Side: L R, LFE
Sampling rate                            : 48.0 kHz
Frame rate                               : 46.875 FPS (1024 SPF)
Compression mode                         : Lossy
Stream size                              : 172 MiB (14%)
Language                                 : English
Default                                  : Yes
Forced                                   : No

Text
ID                                       : 3
Format                                   : VobSub
Muxing mode                              : zlib
Codec ID                                 : S_VOBSUB
Duration                                 : 1 h 28 min
Bit rate                                 : 3 171 b/s
Count of elements                        : 1116
Stream size                              : 2.01 MiB (0%)
Language                                 : English
Default                                  : Yes
Forced                                   : No






Category:Movies > 720P Bluray
Lang:English  English
Total Size:1.17 GB
Info Hash:1a35e404a3e945551c69ed84fef1c72e898d5345
Added By:Freaky
Date Added:20-10-2017 14:23:14
Downloads:142

Ratings:Not Yet Rated (Log in to rate it)


Tracker:
http://ipv4.tracker.harry.lu/announce

This Torrent also has backup trackers
URLSeedersLeechersCompleted
http://ipv4.tracker.harry.lu/announce262150
http://ipv4.tracker.harry.lu:80/announce262150
http://tracker.devil-torrents.pl:80/announce23200
http://tracker.devil-torrents.pl/announce23200
http://open.kickasstracker.com/announce22280
http://open.kickasstracker.com:443/announce22280
http://tracker.devil-torrents.pl/announce23200


File List: 


Comments

No comments still posted

Top
Copyright 2018 DownloadHD -|- Page Generated In 1.162075 secs.
-|- RSS Feed -|- Feed Info