Login
Username:
Password:
[Signup]
[Recover Account]


Browse Torrents

Poll


You must be logged in to view polls



Latest Torrents
Call.The.Midwife.S...
- [Size: 340.85 MB]

Top.Gear.S26E01.RE...
- [Size: 1.41 GB]

Fast.Layne.S01E01....
- [Size: 233.06 MB]

Lethal.Admirer.201...
- [Size: 1.29 GB]

Call.The.Midwife.S...
- [Size: 949.09 MB]


Torrent Details For "Tezz 2012 Hindi 720p WEBRip x264 AAC"

Tezz 2012 Hindi 720p WEBRip x264 AAC

Download this torrent | Magnet Download
Health:
Seeds: 0
Leechers: 12
Completed:
Last Checked: 28-01-2019 13:57:42
External Torrent
Update Stats



Images Host

Poster


Watch-Free-HD     Download

Details
Name:Tezz 2012 Hindi 720p WEBRip x264 AAC
Description:


General
Format                                   : Matroska
Format version                           : Version 4 / Version 2
File size                                : 1.10 GiB
Duration                                 : 1 h 56 min
Overall bit rate                         : 1 355 kb/s

Video
ID                                       : 1
Format                                   : AVC
Format/Info                              : Advanced Video Codec
Format profile                           : [email protected]
Format settings                          : CABAC / 4 Ref Frames
Format settings, CABAC                   : Yes
Format settings, RefFrames               : 4 frames
Codec ID                                 : V_MPEG4/ISO/AVC
Duration                                 : 1 h 56 min
Bit rate                                 : 1 200 kb/s
Width                                    : 1 280 pixels
Height                                   : 542 pixels
Display aspect ratio                     : 2.35:1
Frame rate mode                          : Constant
Frame rate                               : 25.000 FPS
Color space                              : YUV
Chroma subsampling                       : 4:2:0
Bit depth                                : 8 bits
Scan type                                : Progressive
Bits/(Pixel*Frame)                       : 0.069
Stream size                              : 999 MiB (89%)
Writing library                          : x264 core 148 r2643 5c65704
Default                                  : Yes
Forced                                   : No

Audio
ID                                       : 2
Format                                   : AAC
Format/Info                              : Advanced Audio Codec
Format profile                           : LC
Codec ID                                 : A_AAC-2
Duration                                 : 1 h 56 min
Bit rate                                 : 152 kb/s
Channel(s)                               : 2 channels
Channel positions                        : Front: L R
Sampling rate                            : 44.1 kHz
Frame rate                               : 43.066 FPS (1024 SPF)
Compression mode                         : Lossy
Stream size                              : 127 MiB (11%)
Default                                  : Yes
Forced                                   : No











Category:Movies > Bollywood
Lang:Hindi
Total Size:1.10 GB
Info Hash:8d3fab23c256c53d192e36673a5dfb7aa97ca78e
Added By:Freaky
Date Added:27-10-2017 13:38:14
Downloads:201

Ratings:Not Yet Rated (Log in to rate it)


Tracker:
http://ipv4.tracker.harry.lu/announce

This Torrent also has backup trackers
URLSeedersLeechersCompleted
http://ipv4.tracker.harry.lu/announce241
http://ipv4.tracker.harry.lu:80/announce241
http://tracker.devil-torrents.pl:80/announce2130
http://tracker.devil-torrents.pl/announce19700
http://open.kickasstracker.com/announce22790
http://open.kickasstracker.com:443/announce310


File List: 


Comments

No comments still posted

Top
Copyright 2018 DownloadHD -|- Page Generated In 1.986089 secs.
-|- RSS Feed -|- Feed Info