Login
Username:
Password:
[Signup]
[Recover Account]


Browse Torrents

Poll


You must be logged in to view polls



Latest Torrents
The.Simpsons.S30E1...
- [Size: 544.03 MB]

The.Simpsons.S30E1...
- [Size: 301.38 MB]

Family.Guy.S17E13....
- [Size: 203.86 MB]

Bobs.Burgers.S09E1...
- [Size: 217.96 MB]

Pitching.In.S01E02...
- [Size: 430.51 MB]


Torrent Details For "The.Bar.2017.720p.BluRay.x264-WiKi"

The.Bar.2017.720p.BluRay.x264-WiKi

Download this torrent | Magnet Download
Health:
Seeds: 0
Leechers: 20
Completed:
Last Checked: 31-10-2017 12:40:45
External Torrent
Update Stats



Images Host

Poster


iMDB
Imdb Picture Original Title: El bar
Title: Pris au piège
Year: 2017
Runtime: 102 minutes
Votes: 6422
Rating: 6.4/10
Language: Spanish
Country: Spain, Argentina
All Genres: Comedy, Horror, Thriller
Plot Outline: In bustling downtown Madrid, a loud gunshot and two mysterious deaths trap a motley assortment of common urbanites in a decrepit central bar, while paranoia and suspicion force the terrified regulars to turn on each other.
Tagline: Ordering Coffee Can Cost Your Life.
Director: Álex de la Iglesia
Writing By: Jorge Guerricaechevarría,Álex de la Iglesia,
Produced By: Carolina Bang,Álex de la Iglesia,Sofía Fábregas,Mercedes Gamero,Mikel Lejarza,Kiko Martínez,
Music: Carlos Riera Joan Valent
Cast:
Blanca Suárez as Elena
Mario Casas as Nacho
Carmen Machi as Trini
Secun de la Rosa as Sátur
Jaime Ordóñez as Israel
Terele Pávez as Amparo
Joaquín Climent as Andrés
Alejandro Awada as Sergio
Jordi Aguilar as Barrendero
Diego Braguinsky as Oficinista


Watch-Free-HD     Download

Details
Name:The.Bar.2017.720p.BluRay.x264-WiKi
Description:
 
 
 
 
 
 

Video
ID                                       : 1
Format                                   : AVC
Format/Info                              : Advanced Video Codec
Format profile                           : [email protected]
Format settings, CABAC                   : Yes
Format settings, ReFrames                : 12 frames
Codec ID                                 : V_MPEG4/ISO/AVC
Duration                                 : 1 h 42 min
Bit rate                                 : 5 400 kb/s
Width                                    : 1 280 pixels
Height                                   : 536 pixels
Display aspect ratio                     : 2.40:1
Frame rate mode                          : Constant
Frame rate                               : 24.000 FPS
Color space                              : YUV
Chroma subsampling                       : 4:2:0
Bit depth                                : 8 bits
Scan type                                : Progressive
Bits/(Pixel*Frame)                       : 0.328
Stream size                              : 3.84 GiB (89%)
Writing library                          : x264 core 124 r2197+666+28 3970b70 tMod+MixAQ [[email protected]:2:0 X86_64]
Encoding settings                        : cabac=1 / ref=12 /  deblock=1:-3:-3 / analyse=0x3:0x133 / me=umh / subme=10 / psy=1 /  fade_compensate=0.00 / psy_rd=1.00:0.05 / mixed_ref=1 / me_range=32 /  chroma_me=1 / trellis=2 / 8x8dct=1 / cqm=0 / deadzone=21,11 /  fast_pskip=0 / chroma_qp_offset=-3 / threads=24 / sliced_threads=0 /  nr=0 / decimate=0 / interlaced=0 / bluray_compat=0 / constrained_intra=0  / fgo=0 / bframes=10 / b_pyramid=2 / b_adapt=2 / b_bias=0 / direct=3 /  weightb=1 / open_gop=0 / weightp=2 / keyint=250 / keyint_min=24 /  scenecut=40 / intra_refresh=0 / rc=2pass / mbtree=0 / bitrate=5400 /  ratetol=1.0 / qcomp=0.60 / qpmin=0 / qpmax=69 / qpstep=4 / cplxblur=20.0  / qblur=0.5 / ip_ratio=1.30 / pb_ratio=1.20 / aq=3 / aq-strength=0.85 /  aq-sensitivity=10.00 / aq-ifactor=1.00 / aq-pfactor=1.00 /  aq-bfactor=1.00 / aq2=0
Default                                  : Yes
Forced                                   : No

Audio
ID                                       : 2
Format                                   : AC-3
Format/Info                              : Audio Coding 3
Format settings, Endianness              : Big
Codec ID                                 : A_AC3
Duration                                 : 1 h 42 min
Bit rate mode                            : Constant
Bit rate                                 : 640 kb/s
Channel(s)                               : 6 channels
Channel positions                        : Front: L C R, Side: L R, LFE
Sampling rate                            : 48.0 kHz
Frame rate                               : 31.250 FPS (1536 spf)
Bit depth                                : 16 bits
Compression mode                         : Lossy
Stream size                              : 467 MiB (11%)
Language                                 : Spanish
Service kind                             : Complete Main
Default                                  : Yes
Forced                                   : No

Text #1
ID                                       : 3
Format                                   : ASS
Codec ID                                 : S_TEXT/ASS
Codec ID/Info                            : Advanced Sub Station Alpha
Duration                                 : 1 h 37 min
Bit rate                                 : 138 b/s
Count of elements                        : 1675
Compression mode                         : Lossless
Stream size                              : 99.2 KiB (0%)
Title                                    : chs
Language                                 : Chinese
Default                                  : No
Forced                                   : No

Text #2
ID                                       : 4
Format                                   : ASS
Codec ID                                 : S_TEXT/ASS
Codec ID/Info                            : Advanced Sub Station Alpha
Duration                                 : 1 h 37 min
Bit rate                                 : 269 b/s
Count of elements                        : 1675
Compression mode                         : Lossless
Stream size                              : 193 KiB (0%)
Title                                    : chs&eng
Language                                 : Chinese
Default                                  : No
Forced                                   : No

Text #3
ID                                       : 5
Format                                   : ASS
Codec ID                                 : S_TEXT/ASS
Codec ID/Info                            : Advanced Sub Station Alpha
Duration                                 : 1 h 37 min
Bit rate                                 : 138 b/s
Count of elements                        : 1675
Compression mode                         : Lossless
Stream size                              : 99.2 KiB (0%)
Title                                    : cht
Language                                 : Chinese
Default                                  : No
Forced                                   : No

Text #4
ID                                       : 6
Format                                   : ASS
Codec ID                                 : S_TEXT/ASS
Codec ID/Info                            : Advanced Sub Station Alpha
Duration                                 : 1 h 37 min
Bit rate                                 : 267 b/s
Count of elements                        : 1675
Compression mode                         : Lossless
Stream size                              : 191 KiB (0%)
Title                                    : cht&eng
Language                                 : Chinese
Default                                  : No
Forced                                   : No

Menu
00:00:00.000                             : en:00:00:00.000
00:07:25.625                             : en:00:07:25.625
00:17:14.917                             : en:00:17:14.917
00:26:04.917                             : en:00:26:04.917
00:33:26.292                             : en:00:33:26.292
00:41:39.500                             : en:00:41:39.500
00:51:34.375                             : en:00:51:34.375
00:59:14.667                             : en:00:59:14.667
01:08:20.625                             : en:01:08:20.625
01:16:23.667                             : en:01:16:23.667
01:24:45.083                             : en:01:24:45.083
01:33:44.625                             : en:01:33:44.625
Category:Movies > 720P Bluray
Lang:Spanish  Spanish
Total Size:4.30 GB
Info Hash:7a79323527e2d318b7dd89a548d8e0cd9252d180
Added By:Agent47
Date Added:31-10-2017 12:40:45
Downloads:80

Ratings:Not Yet Rated (Log in to rate it)


Tracker:
http://tracker.trackerfix.com:80/announce


File List: 


Comments

No comments still posted

Top
Copyright 2018 DownloadHD -|- Page Generated In 0.039698 secs.
-|- RSS Feed -|- Feed Info