Login
Username:
Password:
[Signup]
[Recover Account]


Browse Torrents

Poll


You must be logged in to view polls



Latest Torrents
What Men Want (201...
- [Size: 851.39 MB]

What Men Want 2019...
- [Size: 680.15 MB]

Goosebumps 2 Haun...
- [Size: 797.62 MB]

Love.After.Lockup....
- [Size: 389.85 MB]

Gotham.S05E06.13.S...
- [Size: 1.08 GB]


Torrent Details For "Toilet Ek Prem Katha 2017 720p BluRay DD 5.1 x264"

Toilet Ek Prem Katha 2017 720p BluRay DD 5.1 x264

Download this torrent | Magnet Download
Health:
Seeds: 0
Leechers: 3
Completed: 1,774 
Last Checked: 23-06-2018 23:07:36
External Torrent
Update Stats



Images Host

Poster


Watch-Free-HD     Download

Details
Name:Toilet Ek Prem Katha 2017 720p BluRay DD 5.1 x264
Description:




General
Format                                   : Matroska
Format version                           : Version 4 / Version 2
File size                                : 1.49 GiB
Duration                                 : 2 h 33 min
Overall bit rate                         : 1 393 kb/s

Video
ID                                       : 1
Format                                   : AVC
Format/Info                              : Advanced Video Codec
Format profile                           : [email protected]
Format settings                          : CABAC / 4 Ref Frames
Format settings, CABAC                   : Yes
Format settings, RefFrames               : 4 frames
Codec ID                                 : V_MPEG4/ISO/AVC
Duration                                 : 2 h 33 min
Bit rate                                 : 1 200 kb/s
Width                                    : 1 280 pixels
Height                                   : 532 pixels
Display aspect ratio                     : 2.40:1
Frame rate mode                          : Constant
Frame rate                               : 24.000 FPS
Color space                              : YUV
Chroma subsampling                       : 4:2:0
Bit depth                                : 8 bits
Scan type                                : Progressive
Bits/(Pixel*Frame)                       : 0.073
Stream size                              : 1.28 GiB (86%)
Writing library                          : x264 core 148 r2643 5c65704
Language                                 : Hindi
Default                                  : Yes
Forced                                   : No

Audio
ID                                       : 2
Format                                   : AC-3
Format/Info                              : Audio Coding 3
Format settings, Endianness              : Big
Codec ID                                 : A_AC3
Duration                                 : 2 h 33 min
Bit rate mode                            : Constant
Bit rate                                 : 192 kb/s
Channel(s)                               : 6 channels
Channel positions                        : Front: L C R, Side: L R, LFE
Sampling rate                            : 48.0 kHz
Frame rate                               : 31.250 FPS (1536 SPF)
Bit depth                                : 16 bits
Compression mode                         : Lossy
Stream size                              : 211 MiB (14%)
Language                                 : Hindi
Service kind                             : Complete Main
Default                                  : Yes
Forced                                   : No















Category:Movies > Bollywood
Lang:Hindi
Total Size:1.49 GB
Info Hash:b28a4e3bf5c7967e734c15c2d6cd61fdee9b7e46
Added By:Freaky
Date Added:07-11-2017 07:59:35
Downloads:967

Ratings:Not Yet Rated (Log in to rate it)


Tracker:
http://ipv4.tracker.harry.lu/announce

This Torrent also has backup trackers
URLSeedersLeechersCompleted
http://ipv4.tracker.harry.lu/announce13216
http://ipv4.tracker.harry.lu:80/announce13216
http://tracker.devil-torrents.pl:80/announce1370
http://tracker.devil-torrents.pl/announce1370
http://open.kickasstracker.com/announce200
http://open.kickasstracker.com:443/announce200
http://tracker.devil-torrents.pl/announce1370


File List: 


Comments

No comments still posted

Top
Copyright 2018 DownloadHD -|- Page Generated In 7.237293 secs.
-|- RSS Feed -|- Feed Info