Login
Username:
Password:
[Signup]
[Recover Account]


Browse Torrents

Poll


You must be logged in to view polls



Latest Torrents
Kursk.2019.HC.HDRi...
- [Size: 1.05 GB]

Evil.Lives.Here.S0...
- [Size: 220.93 MB]

Call.The.Midwife.S...
- [Size: 339.36 MB]

Call.The.Midwife.S...
- [Size: 340.85 MB]

Top.Gear.S26E01.RE...
- [Size: 1.41 GB]


Torrent Details For "Nikka Zaildar (2016) Punjabi 720p UntoucheD - WEB HD AVC - AAC - RANVIJAY"

Nikka Zaildar (2016) Punjabi 720p UntoucheD - WEB HD AVC - AAC - RANVIJAY

Download this torrent | Magnet Download
Health:
Seeds: 0
Leechers: 3
Completed:
Last Checked: 08-12-2018 21:34:36
External Torrent
Update Stats



Images Host

Poster


Watch-Free-HD     Download

Details
Name:Nikka Zaildar (2016) Punjabi 720p UntoucheD - WEB HD AVC - AAC - RANVIJAY
Description:
Nikka Zaildar (2016) Punjabi 720p UntoucheD - WEB HD  AVC AAC - RANVIJAY

Format                                   : MPEG-4
Format profile                           : Base Media / Version 2
Codec ID                                 : mp42 (isom/mp42)
File size                                : 1 019 MiB
Duration                                 : 2 h 13 min
Overall bit rate mode                    : Variable
Overall bit rate                         : 1 063 kb/s
Encoded date                             : UTC 2017-05-17 05:36:02
Tagged date                              : UTC 2017-05-17 05:36:02
gsst                                     : 0
gstd                                     : 8035985

Video
ID                                       : 1
Format                                   : AVC
Format/Info                              : Advanced Video Codec
Format profile                           : [email protected]
Format settings, CABAC                   : Yes
Format settings, ReFrames                : 3 frames
Codec ID                                 : avc1
Codec ID/Info                            : Advanced Video Coding
Duration                                 : 2 h 13 min
Bit rate                                 : 934 kb/s
Width                                    : 1 280 pixels
Height                                   : 720 pixels
Display aspect ratio                     : 16:9
Frame rate mode                          : Constant
Frame rate                               : 24.000 FPS
Color space                              : YUV
Chroma subsampling                       : 4:2:0
Bit depth                                : 8 bits
Scan type                                : Progressive
Bits/(Pixel*Frame)                       : 0.042
Stream size                              : 895 MiB (88%)
Title                                    : ISO Media file produced by Google Inc.
Encoded date                             : UTC 2017-05-17 05:36:02
Tagged date                              : UTC 2017-05-17 05:36:02
Color range                              : Limited
Color primaries                          : BT.709
Transfer characteristics                 : BT.709
Matrix coefficients                      : BT.709

Audio
ID                                       : 2
Format                                   : AAC
Format/Info                              : Advanced Audio Codec
Format profile                           : LC
Codec ID                                 : 40
Duration                                 : 2 h 13 min
Source duration                          : 2 h 13 min
Bit rate mode                            : Variable
Bit rate                                 : 126 kb/s
Channel(s)                               : 2 channels
Channel positions                        : Front: L R
Sampling rate                            : 44.1 kHz
Frame rate                               : 43.066 FPS (1024 spf)
Compression mode                         : Lossy
Stream size                              : 120 MiB (12%)
Source stream size                       : 120 MiB (12%)
Title                                    : ISO Media file produced by Google Inc.
Encoded date                             : UTC 2017-05-17 05:36:02
Tagged date                              : UTC 2017-05-17 05:36:02












Category:Movies > Punjabi
Lang:Punjabi
Total Size:1,018.60 MB
Info Hash:02331f7e0e1296c31849e0c894dad4af57d20d58
Added By:Anonymous
Date Added:18-05-2017 13:53:23
Downloads:855

Ratings:Not Yet Rated (Log in to rate it)


Tracker:
http://explodie.org:6969/announce

This Torrent also has backup trackers
URLSeedersLeechersCompleted
http://explodie.org:6969/announce000
http://tracker.tfile.me/announce000
http://bigfoot1942.sektori.org:6969/announce000


File List: 


Comments

No comments still posted

Top
Copyright 2018 DownloadHD -|- Page Generated In 1.885751 secs.
-|- RSS Feed -|- Feed Info