Login
Username:
Password:
[Signup]
[Recover Account]


Browse Torrents

Poll


You must be logged in to view polls



Latest Torrents
Evil.Lives.Here.S0...
- [Size: 220.93 MB]

Call.The.Midwife.S...
- [Size: 339.36 MB]

Call.The.Midwife.S...
- [Size: 340.85 MB]

Top.Gear.S26E01.RE...
- [Size: 1.41 GB]

Fast.Layne.S01E01....
- [Size: 233.06 MB]


Torrent Details For "Karuppan (2017) - Tamil - Web HD - 1080P - Untouched - AVC - DD 5.1 - Team TMR"

Karuppan (2017) - Tamil - Web HD - 1080P - Untouched - AVC - DD 5.1 - Team TMR

Download this torrent | Magnet Download
Health:
Seeds: 0
Leechers: 1
Completed:
Last Checked: 01-02-2019 21:35:43
External Torrent
Update Stats



Images Host

Poster


Watch-Free-HD     Download

Details
Name:Karuppan (2017) - Tamil - Web HD - 1080P - Untouched - AVC - DD 5.1 - Team TMR
Description:
[B]
[FONT="Century Gothic"][SIZE="5"][COLOR="Blue"]Karuppan (2017) - Tamil - Web HD - 720p/1080P - Untouched - AVC - DD 5.1 - Team TMR[/COLOR][/SIZE][/FONT]
[/B]
 

[CODE]General
Complete name               : Karuppan (2017) - Tamil - Web HD - 1080P - Untouched - AVC - DD 5.1 - Team TMR.mkv
Format                      : Matroska
Format version              : Version 4 / Version 2
File size                   : 9.47 GiB
Duration                    : 2h 16mn
Overall bit rate mode       : Variable
Overall bit rate            : 9 903 Kbps
Movie name                  : Team TMR
Encoded date                : UTC 2017-11-10 02:10:11
Writing application         : mkvmerge v8.7.0 ('All of the above') 64bit
Writing library             : libebml v1.3.3 + libmatroska v1.4.4

Video
ID                          : 1
Format                      : MPEG Video
Format version              : Version 1
Format settings, BVOP       : No
Format settings, Matrix     : Default
Codec ID                    : V_MS/VFW/FOURCC / MPEG
Codec ID/Info               : Chromatic MPEG 1 Video I Frame
Duration                    : 2h 16mn
Bit rate mode               : Variable
Bit rate                    : 9 581 Kbps
Width                       : 1 696 pixels
Height                      : 720 pixels
Display aspect ratio        : 2.35:1
Frame rate mode             : Constant
Frame rate                  : 25.000 fps
Color space                 : YUV
Chroma subsampling          : 4:2:0
Bit depth                   : 8 bits
Scan type                   : Progressive
Compression mode            : Lossy
Bits/(Pixel*Frame)          : 0.314
Time code of first frame    : 00:00:00:00
Time code source            : Group of pictures header
Stream size                 : 9.16 GiB (97%)
Title                       : Team TMR
Default                     : Yes
Forced                      : No

Audio #1
ID                          : 2
Format                      : MPEG Audio
Format version              : Version 1
Format profile              : Layer 2
Codec ID                    : A_MPEG/L2
Codec ID/Hint               : MP2
Duration                    : 2h 16mn
Bit rate mode               : Constant
Bit rate                    : 160 Kbps
Channel(s)                  : 2 channels
Sampling rate               : 48.0 KHz
Frame rate                  : 41.667 fps (1152 spf)
Compression mode            : Lossy
Stream size                 : 157 MiB (2%)
Title                       : Team TMR
Default                     : No
Forced                      : No

Audio #2
ID                          : 3
Format                      : AC-3
Format/Info                 : Audio Coding 3
Mode extension              : CM (complete main)
Format settings, Endianness : Big
Codec ID                    : A_AC3
Duration                    : 2h 16mn
Bit rate mode               : Constant
Bit rate                    : 160 Kbps
Channel(s)                  : 6 channels
Channel positions           : Front: L C R, Side: L R, LFE
Sampling rate               : 44.1 KHz
Frame rate                  : 28.711 fps (1536 spf)
Compression mode            : Lossy
Stream size                 : 157 MiB (2%)
Title                       : Team TMR
Language                    : English
Default                     : Yes
Forced                      : No

[/CODE]

                                           
Category:Movies > Tamil
Lang:Tamil
Total Size:9.47 GB
Info Hash:af561c79b4f5b3fce56ed17b699b9ee89c5b22a2
Added By:TeamMB
Date Added:10-11-2017 02:30:38
Downloads:279

Ratings:Not Yet Rated (Log in to rate it)


Tracker:
udp://zer0day.to:1337/announce


File List: 


Comments

No comments still posted

Top
Copyright 2018 DownloadHD -|- Page Generated In 1.978530 secs.
-|- RSS Feed -|- Feed Info