Login
Username:
Password:
[Signup]
[Recover Account]


Browse Torrents

Poll


You must be logged in to view polls



Latest Torrents
Bobs.Burgers.S09E1...
- [Size: 347.84 MB]

Spider-Man.Into th...
- [Size: 2.26 GB]

The.Simpsons.S30E1...
- [Size: 544.03 MB]

The.Simpsons.S30E1...
- [Size: 301.38 MB]

Family.Guy.S17E13....
- [Size: 203.86 MB]


Torrent Details For "Rings (2017) BluRay 1080p x264 [Hindi-English] - Download"

Rings (2017) BluRay 1080p x264 [Hindi-English] - Download

Download this torrent | Magnet Download
Health:
Seeds: 0
Leechers: 11
Completed:
Last Checked: 27-12-2018 14:20:33
External Torrent
Update Stats



Images Host

Poster


iMDB
Imdb Picture Title: Rings
Year: 2017
Runtime: 102 minutes
Votes: 17724
Rating: 4.5/10
Language: English
Country: USA, Canada
All Genres: Drama, Horror
Plot Outline: A young woman finds herself on the receiving end of a terrifying curse that threatens to take her life in seven days.
Tagline: Evil is reborn
Director: F. Javier Gutiérrez
Writing By: David Loucka,Jacob Estes,Akiva Goldsman,David Loucka,Jacob Estes,Kôji Suzuki,
Produced By: Chris Bender,Neal Edelstein,Ehren Kruger,Roy Lee,Mike Macari,Laurie MacDonald,Walter F. Parkes,Marc Resteghini,Amy Sayres,J.C. Spink,Riyoko Tanaka,
Music: Matthew Margeson
Plot:

Julia becomes worried about her boyfriend, Holt, when he explores the dark urban legend of a mysterious video said to kill the watcher seven days after viewing. She sacrifices herself to save her boyfriend and in doing so makes a horrifying discovery: there is a "movie within the movie" that no one has ever seen before.

A young woman finds herself on the receiving end of a terrifying curse that threatens to take her life in seven days.

- Written by canady
Cast:
Matilda Anna Ingrid Lutz as Julia
Alex Roe as Holt
Johnny Galecki as Gabriel
Vincent D'Onofrio as Burke
Aimee Teegarden as Skye
Bonnie Morgan as Samara
Chuck David Willis as Blue
Patrick R. Walker as Jamal
Zach Roerig as Carter
Laura Wiggins as Faith
Trailers:
Trailer #2
Trailer #1


Watch-Free-HD     Download

Details
Name:Rings (2017) BluRay 1080p x264 [Hindi-English] - Download
Description:

Rings (2017) BluRay 1080p x264 Dual Audio [Hindi-English] DD 5.1 Msubs....Download

General
Format                                   : Matroska
Format version                           : Version 4 / Version 2
File size                                : 4.49 GiB
Duration                                 : 1 h 42 min
Overall bit rate                         : 6 285 kb/s
Movie name                               : [email protected]

Video
Format                                   : AVC
Format/Info                              : Advanced Video Codec
Format profile                           : [email protected]
Format settings, CABAC                   : Yes
Format settings, ReFrames                : 4 frames
Codec ID                                 : V_MPEG4/ISO/AVC
Duration                                 : 1 h 42 min
Bit rate                                 : 5 219 kb/s
Width                                    : 1 920 pixels
Height                                   : 1 080 pixels
Display aspect ratio                     : 16:9
Frame rate mode                          : Constant
Frame rate                               : 23.976 (24000/1001) FPS
Color space                              : YUV
Chroma subsampling                       : 4:2:0
Bit depth                                : 8 bits
Scan type                                : Progressive
Bits/(Pixel*Frame)                       : 0.105
Stream size                              : 3.69 GiB (82%)
Title                                    : [email protected]

Hindi Audio Credits Thanks To PyZ Bro

Audio
Format                                   : AC-3
Format/Info                              : Audio Coding 3
Format settings, Endianness              : Big
Codec ID                                 : A_AC3
Duration                                 : 1 h 42 min
Bit rate mode                            : Constant
Bit rate                                 : 640 kb/s
Channel(s)                               : 6 channels
Channel positions                        : Front: L C R, Side: L R, LFE
Sampling rate                            : 48.0 kHz
Frame rate                               : 31.250 FPS (1536 spf)
Bit depth                                : 16 bits
Compression mode                         : Lossy
Stream size                              : 468 MiB (10%)
Title                                    : [email protected]
Language                                 : Hindi
Service kind                             : Complete Main
Default                                  : Yes
Forced                                   : Yes

Audio 2
Format                                   : AC-3
Format/Info                              : Audio Coding 3
Format settings, Endianness              : Big
Codec ID                                 : A_AC3
Duration                                 : 1 h 42 min
Bit rate mode                            : Constant
Bit rate                                 : 448 kb/s
Channel(s)                               : 6 channels
Channel positions                        : Front: L C R, Side: L R, LFE
Sampling rate                            : 48.0 kHz
Frame rate                               : 31.250 FPS (1536 spf)
Bit depth                                : 16 bits
Compression mode                         : Lossy
Stream size                              : 327 MiB (7%)
Title                                    : [email protected]
Language                                 : English
Service kind                             : Complete Main
Default                                  : No

Subtitle
Format                                   : PGS
Muxing mode                              : zlib
Codec ID                                 : S_HDMV/PGS
Codec ID/Info                            : Picture based subtitle format used on BDs/HD-DVDs
Duration                                 : 1 h 41 min
Bit rate                                 : 5 087 b/s
Count of elements                        : 1668
Stream size                              : 3.70 MiB (0%)
Title                                    : Hindi [email protected]
Language                                 : Hindi
Default                                  : No

Subtitle
Format                                   : PGS
Muxing mode                              : zlib
Codec ID                                 : S_HDMV/PGS
Codec ID/Info                            : Picture based subtitle format used on BDs/HD-DVDs
Duration                                 : 1 h 36 min
Bit rate                                 : 6 009 b/s
Count of elements                        : 1524
Stream size                              : 4.13 MiB (0%)
Title                                    : English [email protected]
Language                                 : English
Default                                  : Yes

SubTitle SRT Format Included

Chapters Menu
00:00:00.000                             : en:00:00:00.000
00:08:42.731                             : en:00:08:42.731
00:15:28.136                             : en:00:15:28.136
00:20:39.989                             : en:00:20:39.989
00:25:25.190                             : en:00:25:25.190
00:32:55.182                             : en:00:32:55.182
00:39:17.855                             : en:00:39:17.855
00:48:53.722                             : en:00:48:53.722
00:55:06.929                             : en:00:55:06.929
01:00:24.371                             : en:01:00:24.371
01:07:38.221                             : en:01:07:38.221
01:18:21.113                             : en:01:18:21.113
01:31:47.210                             : en:01:31:47.210
01:36:37.500                             : en:01:36:37.500


 
 
 
 
 
 
 
 
 

Category:Movies > Hollywood Dub
Lang:Hindi
Total Size:4.49 GB
Info Hash:7ddc230a08014d95002f3f85cdc6fc1e838c4bbb
Added By:Unknown
Date Added:20-05-2017 12:23:15
Downloads:418

Ratings:Not Yet Rated (Log in to rate it)


Tracker:
udp://tracker.coppersurfer.tk:6969/announce


File List: 


Comments

No comments still posted

Top
Copyright 2018 DownloadHD -|- Page Generated In 2.409678 secs.
-|- RSS Feed -|- Feed Info