Login
Username:
Password:
[Signup]
[Recover Account]


Browse Torrents

Poll


You must be logged in to view polls



Latest Torrents
What Men Want (201...
- [Size: 851.39 MB]

What Men Want 2019...
- [Size: 680.15 MB]

Goosebumps 2 Haun...
- [Size: 797.62 MB]

Love.After.Lockup....
- [Size: 389.85 MB]

Gotham.S05E06.13.S...
- [Size: 1.08 GB]


Torrent Details For "Shamitabh 2015 Hindi 720p DvDRip x264 AAC - {{Dr Sakismit}}"

Shamitabh 2015 Hindi 720p DvDRip x264 AAC - {{Dr Sakismit}}

Download this torrent | Magnet Download
Health:
Seeds: 0
Leechers: 12
Completed:
Last Checked: 12-01-2019 23:52:17
External Torrent
Update Stats



Images Host

Poster


iMDB
Imdb Picture Title: Shamitabh
Year: 2015
Runtime: 155 minutes
Votes: 5938
Rating: 6.8/10
Language: Hindi
Country: India
All Genres: Comedy, Drama, Thriller
Plot Outline: An aspiring actor with the inability to speak, joins forces with a man who has a powerful voice. Together they take the film industry by storm, but will their egos get in the way?
Director: R. Balki
Writing By: R. Balki,
Produced By: Sunil Lulla,Juha Wuolijoki,
Music: Ilaiyaraaja
Plot:

The film revolves around a very unique plot, where it shows two different individuals having different talents and when they become ONE, the mixture measures up to be a very big hit in the industry. But in the meantime, EGO comes in the way and prepares to shatter the bond into pieces. Dhanush is a mute aspiring actor from a small village but with great acting talents. Amitabh has a very impactful voice. Both, on their own, can not achieve any greatness in the film industry. But with a help of a third party (Aksara Hassan), when they come together, the talents combined, make a complete new Artist. Dhanush becomes the actor onscreen and Amitabh becomes his Voice. But after reaching the peak of success, Both the leads start to become miserable to the question of having more importance in the unique cocktail. An unstoppable fight of ego comes in action And the clash drifts them apart, destroying every greatness they achieved and every possible milestones they could build together.

- Written by [email protected]

An aspiring actor with the inability to speak, joins forces with a man who has a powerful voice. Together they take the film industry by storm, but will their egos get in the way?


Cast:
Amitabh Bachchan as Amitabh Sinha / Shamitabh
Dhanush as Daanish / Shamitabh
Akshara Haasan as Akshara Pandey
Abhinaya as
Pete Meads as Police Officer
Rukmini Vijayakumar as
Shubham as
Pratik as
Sonamani as
Rajeev as


Watch-Free-HD     Download

Details
Name:Shamitabh 2015 Hindi 720p DvDRip x264 AAC - {{Dr Sakismit}}
Description:
Shamitabh (2015)


An aspiring actor with the inability to speak, joins forces with a man who has a powerful voice. Together they take the film industry by storm, but will their egos get in the way



General

Complete name                            : Shamitabh 2015 Hindi 720p DvDRip x264 AAC - {{Dr_Sakismit}}.mkv
Format                                   : Matroska
Format version                           : Version 4 / Version 2
File size                                : 1.02 GiB
Duration                                 : 2 h 13 min
Overall bit rate                         : 1 098 kb/s
Movie name                               : Shamitabh 2015 Hindi 720p DvDRip x264 AAC - {{Dr_Sakismit}}

Video
ID                                       : 1
Format                                   : AVC
Format/Info                              : Advanced Video Codec
Format profile                           : [email protected]
Format settings, CABAC                   : Yes
Format settings, ReFrames                : 12 frames
Codec ID                                 : V_MPEG4/ISO/AVC
Duration                                 : 2 h 13 min
Bit rate                                 : 1 000 kb/s
Width                                    : 1 280 pixels
Height                                   : 544 pixels
Frame rate                               : 23.976 (24000/1001) FPS

Audio
ID                                       : 2
Format                                   : AAC
Format/Info                              : Advanced Audio Codec
Format profile                           : LC
Codec ID                                 : A_AAC
Duration                                 : 2 h 13 min
Bit rate                                 : 96.0 kb/s
Channel(s)                               : 2 channels
Channel positions                        : Front: L R
Sampling rate                            : 44.1 kHz
Frame rate                               : 43.066 FPS (1024 spf)
Compression mode                         : Lossy
Delay relative to video                  : 10 ms
Stream size                              : 91.6 MiB (9%)
Title                                    : {{Dr_Sakismit}}
Language                                 : Hindi
Default                                  : Yes
Forced                                   : No

Text
ID                                       : 3
Format                                   : UTF-8
Codec ID                                 : S_TEXT/UTF8
Codec ID/Info                            : UTF-8 Plain Text
Duration                                 : 2 h 7 min
Bit rate                                 : 50 b/s
Count of elements                        : 1970
Stream size                              : 47.1 KiB (0%)
Title                                    : {{Dr_Sakismit}}
Language                                 : English
Default                                  : Yes
Forced                                   : No

Category:Movies > Bollywood
Lang:Hindi
Total Size:1.02 GB
Info Hash:6f592ff2a14c93f656915517a2673bab7f608013
Added By:Drsakismit
Date Added:26-05-2017 08:06:53
Downloads:378

Ratings:Not Yet Rated (Log in to rate it)

  


Tracker:
udp://tracker.openbittorrent.com:80/announce


File List: 


Comments

<< Previous      Next >>
1 - 2

[Report] Posted: 26-05-2017 at 15:01:32
Manish



Thanks Buddy...U r great

[Report] Posted: 26-05-2017 at 15:01:53
Manish



Please seed

1 - 2
<< Previous      Next >>


Top
Copyright 2018 DownloadHD -|- Page Generated In 0.427409 secs.
-|- RSS Feed -|- Feed Info