Login
Username:
Password:
[Signup]
[Recover Account]


Browse Torrents

Poll


You must be logged in to view polls



Latest Torrents
Crucible.of.the.Va...
- [Size: 1.39 GB]

Real.Time.With.Bil...
- [Size: 1,014.34 MB]

Chaamp 2017 1080p ...
- [Size: 3.93 GB]

Journal.64.2018.DA...
- [Size: 8.74 GB]

K.G.F Chapter 1 20...
- [Size: 883.60 MB]


Torrent Details For "Bright.2017.720p.WEBRip.x264.ESub"

Bright.2017.720p.WEBRip.x264.ESub

Download this torrent | Magnet Download
Health:
Seeds: 0
Leechers: 1
Completed:
Last Checked: 14-11-2018 14:19:30
External Torrent
Update Stats



Images Host

Poster
No poster


iMDB
Imdb Picture Title: Bright
Year: 2017
Runtime: 117 minutes
Votes: 11340
Rating: 6.8/10
Language: English
Country: USA
All Genres: Action, Crime, Fantasy, Sci-Fi, Thriller
Plot Outline: Set in a world where mystical creatures live side by side with humans. A human cop is forced to work with an Orc to find a weapon everyone is prepared to kill for.
Director: David Ayer
Writing By: Max Landis,
Produced By: David Ayer,Sarah Bowen,Pauline Fischer,Max Landis,Adam Merims,Eric Newman,Sarah Perlman Bremner,Ted Sarandos,Owen Thornton,Bryan Unkeless,
Music: David Sardy
Cast:
Will Smith as Daryl Ward
Joel Edgerton as Nick Jakoby
Noomi Rapace as Leilah
Edgar Ramírez as Kandomere
Lucy Fry as Tikka
Veronica Ngo as Tien
Alex Meraz as Serafin
Happy Anderson as Montehugh
Ike Barinholtz as Pollard
Dawn Olivieri as Sherri Ward
Trailers:
Official Trailer #2
Official Trailer
Teaser


Watch-Free-HD     Download

Details
Name:Bright.2017.720p.WEBRip.x264.ESub
Description:
******************************Thumbnail:**********************

 

******************************Screenshots:********************

 Screenshot 1


 Screenshot 2


 Screenshot 3


 Screenshot 4


 Screenshot 5

**************************************************************

General
Complete name                            : Bright.2017.720p.WEBRip.x264.ESub
Format                                   : MPEG-4
Format profile                           : Base Media
Codec ID                                 : isom (isom/iso2/avc1/mp41)
File size                                : 1.44 GiB
Duration                                 : 1 h 57 min
Overall bit rate                         : 1 754 kb/s
Writing application                      : Lavf57.56.101

Video
ID                                       : 1
Format                                   : AVC
Format/Info                              : Advanced Video Codec
Format profile                           : [email protected]
Format settings                          : CABAC / 4 Ref Frames
Format settings, CABAC                   : Yes
Format settings, RefFrames               : 4 frames
Codec ID                                 : avc1
Codec ID/Info                            : Advanced Video Coding
Duration                                 : 1 h 57 min
Bit rate                                 : 1 500 kb/s
Width                                    : 1 280 pixels
Height                                   : 536 pixels
Display aspect ratio                     : 2.40:1
Frame rate mode                          : Constant
Frame rate                               : 24.000 FPS
Color space                              : YUV
Chroma subsampling                       : 4:2:0
Bit depth                                : 8 bits
Scan type                                : Progressive
Bits/(Pixel*Frame)                       : 0.091
Stream size                              : 1.23 GiB (85%)
Language                                 : English

Audio
ID                                       : 2
Format                                   : AC-3
Format/Info                              : Audio Coding 3
Codec ID                                 : ac-3
Duration                                 : 1 h 57 min
Bit rate mode                            : Constant
Bit rate                                 : 256 kb/s
Channel(s)                               : 6 channels
Channel positions                        : Front: L C R, Side: L R, LFE
Sampling rate                            : 48.0 kHz
Frame rate                               : 31.250 FPS (1536 SPF)
Bit depth                                : 16 bits
Compression mode                         : Lossy
Stream size                              : 215 MiB (15%)
Language                                 : English
Service kind                             : Complete Main
Default                                  : Yes
Alternate group                          : 1

Category:Movies > WEB-HD
Lang:English  English
Total Size:1.45 GB
Info Hash:5a5a7232c0d43c1f92058774adace6582c1c2aa6
Added By:LifeLongg
Date Added:30-12-2017 16:52:42
Downloads:92

Ratings:Not Yet Rated (Log in to rate it)


Tracker:
udp://tracker.openbittorrent.com:80/announce


File List: 


Comments

No comments still posted

Top
Copyright 2018 DownloadHD -|- Page Generated In 0.063012 secs.
-|- RSS Feed -|- Feed Info