Login
Username:
Password:
[Signup]
[Recover Account]


Browse Torrents

Poll


You must be logged in to view polls



Latest Torrents
Call.The.Midwife.S...
- [Size: 340.85 MB]

Top.Gear.S26E01.RE...
- [Size: 1.41 GB]

Fast.Layne.S01E01....
- [Size: 233.06 MB]

Lethal.Admirer.201...
- [Size: 1.29 GB]

Call.The.Midwife.S...
- [Size: 949.09 MB]


Torrent Details For "Mission Impossible Pentalogy (1996-2015) 1080p Bluray x264 Dual Audio{DRIFT}"

Mission Impossible Pentalogy (1996-2015) 1080p Bluray x264 Dual Audio{DRIFT}

Download this torrent | Magnet Download
Health:
Seeds: 0
Leechers: 1
Completed:
Last Checked: 17-01-2018 23:02:07
External Torrent
Update Stats



Images Host

Poster


iMDB
Imdb Picture Title: Mission: Impossible - Ghost Protocol
Year: 2011
Runtime: 132 minutes
Votes: 393273
Rating: 7.4/10
Language: English, Russian, French, Arabic, Swedish
Country: USA, United Arab Emirates, Czech Republic
All Genres: Action, Adventure, Thriller
Plot Outline: The IMF is shut down when it's implicated in the bombing of the Kremlin, causing Ethan Hunt and his new team to go rogue to clear their organization's name.
Tagline: No Plan. No Backup. No Choice.
Director: Brad Bird
Writing By: Bruce Geller,Josh Appelbaum,André Nemec,Ilkka Saari,
Produced By: J.J. Abrams,Josh Appelbaum,Bryan Burk,Jeffrey Chernov,Tom Cruise,David Ellison,Dana Goldberg,Tommy Harper,David Minkowski,André Nemec,Tabrez Noorani,Tom C. Peitzman,Ben Rosenblatt,Pravesh Sahni,Yuriy Sapronov,Evgeny Savostiyanov,Paul Schwake,Tim Smythe,Matthew Stillman,
Music: Michael Giacchino
Cast:
Tom Cruise as Ethan Hunt
Paula Patton as Jane
Simon Pegg as Benji
Jeremy Renner as Brandt
Michael Nyqvist as Hendricks
Vladimir Mashkov as Sidorov
Samuli Edelmann as Wistrom
Ivan Shvedoff as Leonid Lisenker
Anil Kapoor as Brij Nath
Léa Seydoux as Sabine Moreau
Trailers:
No. 2
Trailer #1


Watch-Free-HD     Download

Details
Name:Mission Impossible Pentalogy (1996-2015) 1080p Bluray x264 Dual Audio{DRIFT}
Description:
Mission Impossible Pentalogy (1996-2015) 1080p Bluray x264 Dual Audio{DRIFT}



[img] 
 upload photo album[/img]



MEDIA INFO


General
Unique ID : 331251641206958170373863837125333208993 (0xF934BED89D8F6728892146BE103BCFA1)
Complete name : C:\Users\Mustafa Minhaz\Downloads\Mission Impossible Pentalogy (1996-2015) 1080p Bluray x264 Dual Audio{DRIFT}\Mission Impossible III (2006) 1080p Bluray x264 Dual Audio [Hindi DD2.0 - English DTS 5.1] - Esub ~ Ranvijay.mkv
Format : Matroska
Format version : Version 4 / Version 2
File size : 5.66 GiB
Duration : 2 h 5 min
Overall bit rate : 6 460 kb/s
Movie name : Mission Impossible III (2006) 1080p Bluray x264 Dual Audio [Hindi DD2.0 - English DTS 5.1] - Esub ~ Ranvijay
Encoded date : UTC 2018-01-09 11:25:45
Writing application : mkvmerge v19.0.0 ('Brave Captain') 64-bit
Writing library : libebml v1.3.5 + libmatroska v1.4.8

Video
ID : 1
Format : AVC
Format/Info : Advanced Video Codec
Format profile : [email protected]
Format settings : CABAC / 6 Ref Frames
Format settings, CABAC : Yes
Format settings, RefFrames : 6 frames
Codec ID : V_MPEG4/ISO/AVC
Duration : 2 h 5 min
Bit rate : 5 500 kb/s
Width : 1 920 pixels
Height : 816 pixels
Display aspect ratio : 2.35:1
Frame rate mode : Constant
Frame rate : 23.976 (24000/1001) FPS
Color space : YUV
Chroma subsampling : 4:2:0
Bit depth : 8 bits
Scan type : Progressive
Bits/(Pixel*Frame) : 0.146
Stream size : 4.80 GiB (85%)
Title : ~Ranvijay~
Writing library : x264 core 120
Encoding settings : cabac=1 / ref=6 / deblock=1:-3:-3 / analyse=0x3:0x133 / me=umh / subme=10 / psy=1 / psy_rd=1.50:0.00 / mixed_ref=1 / me_range=128 / chroma_me=1 / trellis=2 / 8x8dct=1 / cqm=0 / deadzone=21,11 / fast_pskip=1 / chroma_qp_offset=-2 / threads=12 / sliced_threads=0 / nr=0 / decimate=1 / interlaced=0 / bluray_compat=0 / constrained_intra=0 / bframes=6 / b_pyramid=2 / b_adapt=2 / b_bias=0 / direct=3 / weightb=1 / open_gop=0 / weightp=2 / keyint=240 / keyint_min=24 / scenecut=40 / intra_refresh=0 / rc_lookahead=120 / rc=2pass / mbtree=1 / bitrate=5500 / ratetol=1.0 / qcomp=0.60 / qpmin=3 / qpmax=69 / qpstep=4 / cplxblur=20.0 / qblur=0.5 / vbv_maxrate=10000 / vbv_bufsize=10000 / nal_hrd=none / ip_ratio=1.40 / aq=1:2.00
Language : English
Default : Yes
Forced : No
Color range : Limited
Color primaries : BT.709
Transfer characteristics : BT.709
Matrix coefficients : BT.709

Audio #1
ID : 3
Format : E-AC-3
Format/Info : Enhanced Audio Coding 3
Codec ID : A_EAC3
Duration : 2 h 5 min
Bit rate mode : Constant
Bit rate : 224 kb/s
Channel(s) : 2 channels
Channel positions : Front: L R
Sampling rate : 48.0 kHz
Frame rate : 187.500 FPS (256 SPF)
Compression mode : Lossy
Delay relative to video : 1 s 22 ms
Stream size : 201 MiB (3%)
Title : ~Ranvijay~
Language : Hindi
Service kind : Complete Main
Default : Yes
Forced : No

Audio #2
ID : 4
Format : DTS
Format/Info : Digital Theater Systems
Codec ID : A_DTS
Duration : 2 h 5 min
Bit rate mode : Constant
Bit rate : 755 kb/s
Channel(s) : 6 channels
Channel positions : Front: L C R, Side: L R, LFE
Sampling rate : 48.0 kHz
Frame rate : 93.750 FPS (512 SPF)
Bit depth : 24 bits
Compression mode : Lossy
Stream size : 677 MiB (12%)
Title : ~Ranvijay~
Language : English
Default : No
Forced : No

Text
ID : 2
Format : VobSub
Muxing mode : zlib
Codec ID : S_VOBSUB
Codec ID/Info : Picture based subtitle format used on DVDs
Duration : 1 h 57 min
Bit rate : 7 721 b/s
Count of elements : 1199
Stream size : 6.51 MiB (0%)
Title : ~Ranvijay~
Language : English
Default : Yes
Forced : No



SCREENSHOTS


 
 
 
 
 
 
 
 
 
 
 
 
 
 
 
 
 
 
 
 
 
 
 
 
 
 
 
 upload photo album



DO NOT FORGET TO SEEDS
Category:Movies > Hollywood Dub
Lang:Hindi
Total Size:27.95 GB
Info Hash:80289e63053c10c29a0c607f8de18b7159d525a7
Added By:DRIFT
Date Added:17-01-2018 10:39:45
Downloads:261

Ratings:Not Yet Rated (Log in to rate it)


Tracker:
udp://tracker.coppersurfer.tk:6969/announce


File List: 


Comments

No comments still posted

Top
Copyright 2018 DownloadHD -|- Page Generated In 4.802578 secs.
-|- RSS Feed -|- Feed Info