Login
Username:
Password:
[Signup]
[Recover Account]


Browse Torrents

Poll


You must be logged in to view polls



Latest Torrents
Windy.City.Rehab.S...
- [Size: 354.87 MB]

Bobs.Burgers.S09E1...
- [Size: 347.84 MB]

Spider-Man.Into th...
- [Size: 2.26 GB]

The.Simpsons.S30E1...
- [Size: 544.03 MB]

The.Simpsons.S30E1...
- [Size: 301.38 MB]


Torrent Details For "The Kapil Sharma Show [All Episodes- 129 ] Untouched WEBHD Team Jio Exclusive"

The Kapil Sharma Show [All Episodes- 129 ] Untouched WEBHD Team Jio Exclusive

Download this torrent | Magnet Download
Health:
Seeds: 0
Leechers: 19
Completed:
Last Checked: 30-12-2018 05:58:58
External Torrent
Update Stats



Images Host

Poster


Watch-Free-HD     Download

Details
Name:The Kapil Sharma Show [All Episodes- 129 ] Untouched WEBHD Team Jio Exclusive
Description:
[align=center]



Quote:

Format                      : MPEG-4
Format profile              : Base Media
Codec ID                    : isom (isom/avc1/mp42)
File size                   : 605 MiB
Duration                    : 1 h 5 min
Overall bit rate mode       : Variable
Overall bit rate            : 1 300 kb/s
Encoded date                : UTC 2017-10-17 17:52:14
Tagged date                 : UTC 2017-10-17 17:52:14

Video
ID                          : 1
Format                      : AVC
Format/Info                 : Advanced Video Codec
Format profile              : [email protected]
Format settings             : CABAC / 4 Ref Frames
Format settings, CABAC      : Yes
Format settings, ReFrames   : 4 frames
Codec ID                    : avc1
Codec ID/Info               : Advanced Video Coding
Duration                    : 1 h 5 min
Bit rate                    : 1 200 kb/s
Maximum bit rate            : 3 206 kb/s
Width                       : 1 366 pixels
Height                      : 720 pixels
Display aspect ratio        : 1.897
Frame rate mode             : Constant
Frame rate                  : 25.000 FPS
Color space                 : YUV
Chroma subsampling          : 4:2:0
Bit depth                   : 8 bits
Scan type                   : Progressive
Bits/(Pixel*Frame)          : 0.049
Stream size                 : 559 MiB (92%)
Writing library             : Zencoder Video Encoding System
Encoded date                : UTC 2017-10-17 17:39:21
Tagged date                 : UTC 2017-10-17 17:52:16
Color range                 : Limited
Color primaries             : BT.709
Transfer characteristics    : BT.709
Matrix coefficients         : BT.709

Audio
ID                          : 2
Format                      : AAC
Format/Info                 : Advanced Audio Codec
Format profile              : LC
Codec ID                    : mp4a-40-2
Duration                    : 1 h 5 min
Bit rate mode               : Variable
Bit rate                    : 96.0 kb/s
Maximum bit rate            : 103 kb/s
Channel(s)                  : 2 channels
Channel positions           : Front: L R
Sampling rate               : 48.0 kHz
Frame rate                  : 46.875 FPS (1024 SPF)
Compression mode            : Lossy
Stream size                 : 44.7 MiB (7%)
Encoded date                : UTC 2017-10-17 17:28:04
Tagged date                 : UTC 2017-10-17 17:52:16

 
 
 
 
 
 
[/align]
Category:TV > WEB-HD
Lang:Hindi
Total Size:72.86 GB
Info Hash:7bff0aebb4bf0bd7317fa492bb244207cca7eb1c
Added By:TeamJio
Date Added:20-01-2018 15:50:19
Downloads:311

Ratings:Not Yet Rated (Log in to rate it)


Tracker:
udp://tracker.coppersurfer.tk:6969/announce


File List: 


Comments

<< Previous      Next >>
1 - 2

[Report] Posted: 24-01-2018 at 08:04:59
amrikzira



why showing 15 seeders.... no one seeding...
:!

[Report] Posted: 12-02-2018 at 06:13:27
OptimusPrine



Seed Please

1 - 2
<< Previous      Next >>


Top
Copyright 2018 DownloadHD -|- Page Generated In 1.461599 secs.
-|- RSS Feed -|- Feed Info