Login
Username:
Password:
[Signup]
[Recover Account]


Browse Torrents

Poll


You must be logged in to view polls



Latest Torrents
From.Straight.as.t...
- [Size: 896.22 MB]

Cheater 2016 Marat...
- [Size: 2.59 GB]

Live.PD.S03E45.HDT...
- [Size: 1.75 GB]

Overlord.2018.INTE...
- [Size: 18.67 GB]

Crucible.of.the.Va...
- [Size: 1.33 GB]


Torrent Details For "Dil Diyan Gallan Song - Tiger Zinda Hai - Salman Khan - Katrina Kaif - Atif Aslam -4k Ultra HD...."

Dil Diyan Gallan Song - Tiger Zinda Hai - Salman Khan - Katrina Kaif - Atif Aslam -4k Ultra HD....

Download this torrent | Magnet Download
Health:
Seeds: 0
Leechers: 6
Completed: 107 
Last Checked: 08-02-2019 15:06:16
External Torrent
Update Stats



Images Host

Poster


iMDB
Imdb Picture Title: Tiger Zinda Hai
Year: 2017
Language: Hindi
Country: India
All Genres: Action, Adventure, Thriller
Plot Outline: A sequel to the record breaking blockbuster 'Ek Tha Tiger', 'Tiger Zinda Hai' continues the story of two super spies Tiger and Zoya eight years later.
Tagline: An Indian agent. A Pakistani spy. Against a common enemy...
Director: Ali Abbas Zafar
Writing By: Neelesh Misra,Ali Abbas Zafar,Ali Abbas Zafar,Aditya Chopra,
Produced By: Jamal Araissi,Aditya Chopra,Sudhanshu Kumar,Andreas Payer,Bharat Rawail,Aashish Singh,
Music: Julius Packiam
Cast:
Salman Khan as Tiger / Avinash Singh Rathore
Katrina Kaif as Zoya
Paresh Rawal as
Angad Bedi as Navin
Jay-Jay Botha as
Erdal Besik├žioglu as
Zachary Coffin as Garry
Najmeddin AlHadad as Hakim
Pradeep Singh Rawat as Jahangir
Casey Shannon as Sam Jacobs
Trailers:
Official 'Tiger Zinda Hai' Trailer


Watch-Free-HD     Download

Details
Name:Dil Diyan Gallan Song - Tiger Zinda Hai - Salman Khan - Katrina Kaif - Atif Aslam -4k Ultra HD....
Description:
Dil Diyan Gallan Song - Tiger Zinda Hai - Salman Khan - Katrina Kaif - Atif Aslam -4k Ultra HD...Team Jio



Music Video Tracklist:



Media Information:



Format                      : MPEG-4
Format profile              : Base Media
Codec ID                    : isom (isom/avc1)
File size                   : 300 MiB
Duration                    : 3 min 4 s
Overall bit rate            : 13.6 Mb/s
Encoded date                : UTC 2018-01-26 20:12:01
Tagged date                 : UTC 2018-01-26 20:12:01

Video
ID                          : 1
Format                      : AVC
Format/Info                 : Advanced Video Codec
Format profile              : [email protected]
Format settings             : CABAC / 4 Ref Frames
Format settings, CABAC      : Yes
Format settings, ReFrames   : 4 frames
Codec ID                    : avc1
Codec ID/Info               : Advanced Video Coding
Duration                    : 3 min 4 s
Bit rate                    : 13.5 Mb/s
Maximum bit rate            : 33.4 Mb/s
Width                       : 3 840 pixels
Height                      : 2 160 pixels
Display aspect ratio        : 16:9
Frame rate mode             : Constant
Frame rate                  : 24.000 FPS
Color space                 : YUV
Chroma subsampling          : 4:2:0
Bit depth                   : 8 bits
Scan type                   : Progressive
Bits/(Pixel*Frame)          : 0.068
Stream size                 : 298 MiB (100%)
Writing library             : x264 core 152 r2851 ba24899
Encoding settings           : cabac=1 / ref=1 / deblock=1:0:0 / analyse=0x3:0x113 / me=hex / subme=7 / psy=1 / psy_rd=1.00:0.00 / mixed_ref=0 / me_range=16 / chroma_me=1 / trellis=1 / 8x8dct=1 / cqm=0 / deadzone=21,11 / fast_pskip=1 / chroma_qp_offset=-2 / threads=3 / lookahead_threads=1 / sliced_threads=0 / nr=0 / decimate=1 / interlaced=0 / bluray_compat=0 / constrained_intra=0 / bframes=3 / b_pyramid=2 / b_adapt=1 / b_bias=0 / direct=1 / weightb=1 / open_gop=0 / weightp=2 / keyint=240 / keyint_min=24 / scenecut=40 / intra_refresh=0 / rc_lookahead=40 / rc=2pass / mbtree=1 / bitrate=13544 / ratetol=1.0 / qcomp=0.60 / qpmin=0 / qpmax=69 / qpstep=4 / cplxblur=20.0 / qblur=0.5 / vbv_maxrate=62500 / vbv_bufsize=78125 / nal_hrd=none / filler=0 / ip_ratio=1.40 / aq=1:1.00
Encoded date                : UTC 2018-01-26 20:12:01
Tagged date                 : UTC 2018-01-26 20:12:04

Audio
ID                          : 2
Format                      : AC-3
Format/Info                 : Audio Coding 3
Codec ID                    : ac-3
Duration                    : 3 min 4 s
Bit rate mode               : Constant
Bit rate                    : 64.0 kb/s
Maximum bit rate            : 66.9 kb/s
Channel(s)                  : 2 channels
Channel positions           : Front: L R
Sampling rate               : 44.1 kHz
Frame rate                  : 28.711 FPS (1536 SPF)
Bit depth                   : 16 bits
Compression mode            : Lossy
Stream size                 : 1.41 MiB (0%)
Language                    : English
Service kind                : Complete Main
Encoded date                : UTC 2018-01-26 20:12:04
Tagged date                 : UTC 2018-01-26 20:12:04





Screenshot:


                       

I am on FaceBook, Post Your suggestion, and find upcoming Releases at FB Page so keep in touch !!!

 

Note : Please try to seed as much as you can since "sharing brings joy" !
Category:Music > Videos
Lang:Hindi
Total Size:299.55 MB
Info Hash:42242aa9985c99c42088db0dc596676faee2daca
Added By:RSY007
Date Added:27-01-2018 20:15:57
Downloads:1,503

Ratings:Not Yet Rated (Log in to rate it)


Tracker:
udp://9.rarbg.com:2710/announce

This Torrent also has backup trackers
URLSeedersLeechersCompleted
http://exodus.desync.com:6969/announce000
http://fr33dom.h33t.com:3310/announce000


File List: 


Comments

No comments still posted

Top
Copyright 2018 DownloadHD -|- Page Generated In 4.890613 secs.
-|- RSS Feed -|- Feed Info