Login
Username:
Password:
[Signup]
[Recover Account]


Browse Torrents

Poll


You must be logged in to view polls



Latest Torrents
The.Goldbergs.2013...
- [Size: 311.54 MB]

Unspeakable.S01E07...
- [Size: 762.42 MB]

Drunk.History.S06E...
- [Size: 206.38 MB]

Burden.of.Truth.S0...
- [Size: 360.40 MB]

Drunk.History.S06E...
- [Size: 208.36 MB]


Torrent Details For "Judwaa 2 2017 720p BluRay DD 5.1 x264 ESub"

Judwaa 2 2017 720p BluRay DD 5.1 x264 ESub

Download this torrent | Magnet Download
Health:
Seeds: 0
Leechers: 1
Completed:
Last Checked: 23-10-2018 11:29:22
External Torrent
Update Stats



Images Host

Poster
No poster


Watch-Free-HD     Download

Details
Name:Judwaa 2 2017 720p BluRay DD 5.1 x264 ESub
Description:

 


General
Format                      : Matroska
Format version              : Version 4 / Version 2
File size                   : 1.42 GiB
Duration                    : 2 h 25 min
Overall bit rate            : 1 392 kb/s
Movie name                  : Judwaa 2 2017 720p BluRay DD 5.1 x264 ESub [Torkat.ga]

Video
ID                          : 1
Format                      : AVC
Format/Info                 : Advanced Video Codec
Format profile              : [email protected]
Format settings             : CABAC / 4 Ref Frames
Format settings, CABAC      : Yes
Format settings, ReFrames   : 4 frames
Codec ID                    : V_MPEG4/ISO/AVC
Duration                    : 2 h 25 min
Bit rate                    : 1 200 kb/s
Width                       : 1 280 pixels
Height                      : 536 pixels
Display aspect ratio        : 2.40:1
Frame rate mode             : Constant
Frame rate                  : 24.000 FPS
Color space                 : YUV
Chroma subsampling          : 4:2:0
Bit depth                   : 8 bits
Scan type                   : Progressive
Bits/(Pixel*Frame)          : 0.073
Stream size                 : 1.21 GiB (85%)
Writing library             : x264 core 148 r2708 86b7198
Default                     : Yes
Forced                      : No

Audio
ID                          : 2
Format                      : AC-3
Format/Info                 : Audio Coding 3
Codec ID                    : A_AC3
Duration                    : 2 h 25 min
Bit rate mode               : Constant
Bit rate                    : 192 kb/s
Channel(s)                  : 6 channels
Channel positions           : Front: L C R, Side: L R, LFE
Sampling rate               : 48.0 kHz
Frame rate                  : 31.250 FPS (1536 SPF)
Bit depth                   : 16 bits
Compression mode            : Lossy
Stream size                 : 200 MiB (14%)
Service kind                : Complete Main
Default                     : Yes
Forced                      : No

Text
ID                          : 3
Format                      : PGS
Muxing mode                 : zlib
Codec ID                    : S_HDMV/PGS
Duration                    : 2 h 19 min
Bit rate                    : 13.7 kb/s
Count of elements           : 4089
Stream size                 : 13.6 MiB (1%)
Language                    : English
Default                     : Yes
Forced                      : No




 
 
 
 
 
 
 
 
 
 
 

Category:Movies > Bollywood
Lang:Hindi
Total Size:1.42 GB
Info Hash:0122f861271bbc64ffd49ec957208019f7600a6e
Added By:Freaky
Date Added:29-01-2018 10:51:51
Downloads:317

Ratings:Not Yet Rated (Log in to rate it)


Tracker:
udp://tracker.coppersurfer.tk:6969/announce


File List: 


Comments

No comments still posted

Top
Copyright 2018 DownloadHD -|- Page Generated In 8.431413 secs.
-|- RSS Feed -|- Feed Info