Login
Username:
Password:
[Signup]
[Recover Account]


Browse Torrents

Poll


You must be logged in to view polls



Latest Torrents
Dead.List.2018.108...
- [Size: 5.27 GB]

Back.Roads.2018.10...
- [Size: 4.47 GB]

From.Straight.as.t...
- [Size: 896.22 MB]

Cheater 2016 Marat...
- [Size: 2.59 GB]

Live.PD.S03E45.HDT...
- [Size: 1.75 GB]


Torrent Details For "Final Destination 5 (2011) 720p Blu-Ray x264 AAC [ Dual Audio] [Hindi+English ] { TaRa }.mkv"

Final Destination 5 (2011) 720p Blu-Ray x264 AAC [ Dual Audio] [Hindi+English ] { TaRa }.mkv

Download this torrent | Magnet Download
Health:
Seeds: 0
Leechers: 2
Completed:
Last Checked: 27-01-2019 01:07:23
External Torrent
Update Stats



Images Host

Poster


Watch-Free-HD     Download

Details
Name:Final Destination 5 (2011) 720p Blu-Ray x264 AAC [ Dual Audio] [Hindi+English ] { TaRa }.mkv
Description:

Quote:

Final Destination 5 (2011) 720p Blu-Ray x264 AAC [ Dual Audio] [Hindi+English ] { TaRa }.mkv


===================================================================
General
Complete name               : Final Destination 5 (2011) 720p Blu-Ray x264 AAC [ Dual Audio] [Hindi+English ] { TaRa }.mkv
Format                      : Matroska
Format version              : Version 4 / Version 2
File size                   : 1.89 GiB
Duration                    : 1 h 31 min
Overall bit rate            : 2 940 kb/s
===================================================================
Video
ID                          : 1
Format                      : AVC
Format/Info                 : Advanced Video Codec
Format profile              : [email protected]
Format settings, CABAC      : Yes
Format settings, ReFrames   : 5 frames
Codec ID                    : V_MPEG4/ISO/AVC
Duration                    : 1 h 31 min
Bit rate                    : 887 kb/s
Width                       : 1 280 pixels
Height                      : 528 pixels
Display aspect ratio        : 2.40:1
Frame rate mode             : Constant
Frame rate                  : 23.976 (24000/1001) FPS
Color space                 : YUV
Chroma subsampling          : 4:2:0
Bit depth                   : 8 bits
Scan type                   : Progressive
Bits/(Pixel*Frame)          : 0.055
Stream size                 : 583 MiB (30%)
Title                       : .....::::: TaRa :::::.....
Language                    : English
Default                     : Yes
Forced                      : No
===================================================================
Audio #1
ID                          : 2
Format                      : DTS
Format/Info                 : Digital Theater Systems
Mode                        : 16
Format settings, Endianness : Big
Codec ID                    : A_DTS
Duration                    : 1 h 31 min
Bit rate mode               : Constant
Bit rate                    : 1 025 kb/s
Channel(s)                  : 6 channels
Channel positions           : Front: L C R, Side: L R, LFE
Sampling rate               : 44.1 kHz
Frame rate                  : 86.133 FPS (512 spf)
Bit depth                   : 16 bits
Compression mode            : Lossy
Stream size                 : 673 MiB (35%)
Title                       : .....::::: TaRa :::::..... Hindi
Language                    : Hindi
Default                     : Yes
Forced                      : No
===================================================================
Audio #2
ID                          : 3
Format                      : DTS
Format/Info                 : Digital Theater Systems
Mode                        : 16
Format settings, Endianness : Big
Codec ID                    : A_DTS
Duration                    : 1 h 31 min
Bit rate mode               : Constant
Bit rate                    : 1 025 kb/s
Channel(s)                  : 6 channels
Channel positions           : Front: L C R, Side: L R, LFE
Sampling rate               : 44.1 kHz
Frame rate                  : 86.133 FPS (512 spf)
Bit depth                   : 16 bits
Compression mode            : Lossy
Stream size                 : 674 MiB (35%)
Title                       : .....::::: TaRa :::::..... English
Language                    : English
Default                     : No
Forced                      : No
===================================================================


                                 










Category:Movies > Hollywood Dub
Lang:Hindi
Total Size:1.89 GB
Info Hash:e7c9cb437076bb50c7110a2c19f0a7b902366818
Added By:Unknown
Date Added:27-03-2017 12:39:26
Downloads:798

Ratings:Not Yet Rated (Log in to rate it)

  


Tracker:
udp://tracker.ccc.de:80/announce

This Torrent also has backup trackers
URLSeedersLeechersCompleted
http://tracker.dler.org:6969/announce000
http://ipv4.tracker.harry.lu:80/announce104


File List: 


Comments

No comments still posted

Top
Copyright 2018 DownloadHD -|- Page Generated In 2.640747 secs.
-|- RSS Feed -|- Feed Info