Login
Username:
Password:
[Signup]
[Recover Account]


Browse Torrents

Poll


You must be logged in to view polls



Latest Torrents
Grown-ish.S02E09.7...
- [Size: 517.32 MB]

Gordon.Ramsays.24....
- [Size: 1.04 GB]

Grown-ish.S02E09.W...
- [Size: 169.74 MB]

Burden.of.Truth.S0...
- [Size: 858.03 MB]

Gordon.Ramsays.24....
- [Size: 347.93 MB]


Torrent Details For "Tiger Zinda Hai (2017) BluRay Hindi 720p x264 AAC -ShahidHasanzai"

Tiger Zinda Hai (2017) BluRay Hindi 720p x264 AAC -ShahidHasanzai

Download this torrent | Magnet Download
Health:
Seeds: 0
Leechers: 5
Completed: 53 
Last Checked: 12-05-2018 06:43:48
External Torrent
Update Stats



Images Host

Poster


iMDB
Imdb Picture Title: Tiger Zinda Hai
Year: 2017
Language: Hindi
Country: India
All Genres: Action, Adventure, Thriller
Plot Outline: A sequel to the record breaking blockbuster 'Ek Tha Tiger', 'Tiger Zinda Hai' continues the story of two super spies Tiger and Zoya eight years later.
Tagline: An Indian agent. A Pakistani spy. Against a common enemy...
Director: Ali Abbas Zafar
Writing By: Neelesh Misra,Ali Abbas Zafar,Ali Abbas Zafar,Aditya Chopra,
Produced By: Jamal Araissi,Aditya Chopra,Sudhanshu Kumar,Andreas Payer,Bharat Rawail,Aashish Singh,
Music: Julius Packiam
Cast:
Salman Khan as Tiger / Avinash Singh Rathore
Katrina Kaif as Zoya
Paresh Rawal as
Angad Bedi as Navin
Jay-Jay Botha as
Erdal Besik├žioglu as
Zachary Coffin as Garry
Najmeddin AlHadad as Hakim
Pradeep Singh Rawat as Jahangir
Casey Shannon as Sam Jacobs
Trailers:
Official 'Tiger Zinda Hai' Trailer


Watch-Free-HD     Download

Details
Name:Tiger Zinda Hai (2017) BluRay Hindi 720p x264 AAC -ShahidHasanzai
Description:
General
Complete name               : Tiger Zinda Hai (2017) BluRay Hindi 720p x264 AAC -ShahidHasanzai
Format                      : MPEG-4
Format profile              : Base Media
Codec ID                    : isom (isom/iso2/avc1/mp41)
File size                   : 1.33 GiB
Duration                    : 2 h 39 min
Overall bit rate            : 1 190 kb/s
Movie name                  : ShahidHasanzai
Writing application         : Lavf57.83.100
Cover                       : Yes

Video
ID                          : 1
Format                      : AVC
Format/Info                 : Advanced Video Codec
Format profile              : [email protected]
Format settings             : CABAC / 5 Ref Frames
Format settings, CABAC      : Yes
Format settings, ReFrames   : 5 frames
Codec ID                    : avc1
Codec ID/Info               : Advanced Video Coding
Duration                    : 2 h 39 min
Bit rate                    : 1 088 kb/s
Width                       : 1 280 pixels
Height                      : 544 pixels
Display aspect ratio        : 2.35:1
Frame rate mode             : Constant
Frame rate                  : 24.000 FPS
Color space                 : YUV
Chroma subsampling          : 4:2:0
Bit depth                   : 8 bits
Scan type                   : Progressive
Bits/(Pixel*Frame)          : 0.065
Stream size                 : 1.22 GiB (91%)
Writing library             : x264 core 148 r2643 5c65704
Encoding settings           : cabac=1 / ref=5 / deblock=1:0:0 / analyse=0x3:0x113 / me=hex / subme=7 / psy=1 / psy_rd=1.00:0.00 / mixed_ref=1 / me_range=16 / chroma_me=1 / trellis=1 / 8x8dct=1 / cqm=0 / deadzone=21,11 / fast_pskip=1 / chroma_qp_offset=-2 / threads=8 / lookahead_threads=8 / sliced_threads=1 / slices=8 / nr=0 / decimate=1 / interlaced=0 / bluray_compat=0 / constrained_intra=0 / bframes=0 / weightp=2 / keyint=250 / keyint_min=24 / scenecut=40 / intra_refresh=0 / rc=abr / mbtree=0 / bitrate=1088 / ratetol=1.0 / qcomp=0.60 / qpmin=0 / qpmax=69 / qpstep=4 / ip_ratio=1.40 / aq=1:1.00

Audio
ID                          : 2
Format                      : AAC
Format/Info                 : Advanced Audio Codec
Format profile              : LC
Codec ID                    : mp4a-40-2
Duration                    : 2 h 39 min
Bit rate mode               : Constant
Bit rate                    : 96.0 kb/s
Channel(s)                  : 2 channels
Channel positions           : Front: L R
Sampling rate               : 48.0 kHz
Frame rate                  : 46.875 FPS (1024 SPF)
Compression mode            : Lossy
Stream size                 : 110 MiB (8%)
Title                       : Stereo
Language                    : Hindi
Default                     : Yes
Alternate group             : 1


 
           
           
Category:Movies > Bollywood
Lang:Hindi
Total Size:1.33 GB
Info Hash:f59f28387a96ea7ea77792be73cc945102fb595e
Added By:ShahidxHasanzai
Date Added:11-02-2018 18:46:39
Downloads:767

Ratings:Not Yet Rated (Log in to rate it)


Tracker:
udp://tracker.openbittorrent.com:80/announce


File List: 


Comments

<< Previous      Next >>
1 - 1

[Report] Posted: 14-03-2018 at 11:01:13
manazirus



grrwat print

1 - 1
<< Previous      Next >>


Top
Copyright 2018 DownloadHD -|- Page Generated In 2.652210 secs.
-|- RSS Feed -|- Feed Info