Login
Username:
Password:
[Signup]
[Recover Account]


Browse Torrents

Poll


You must be logged in to view polls



Latest Torrents
What Men Want (201...
- [Size: 851.39 MB]

What Men Want 2019...
- [Size: 680.15 MB]

Goosebumps 2 Haun...
- [Size: 797.62 MB]

Love.After.Lockup....
- [Size: 389.85 MB]

Gotham.S05E06.13.S...
- [Size: 1.08 GB]


Torrent Details For "A Cure For Wellness (2016) 720p BluRay x264 Dual Audio [Hindi 5.1 + English 5.1].-.link2downloa..."

A Cure For Wellness (2016) 720p BluRay x264 Dual Audio [Hindi 5.1 + English 5.1].-.link2downloa...

Download this torrent | Magnet Download
Health:
Seeds: 0
Leechers: 4
Completed:
Last Checked: 28-12-2018 05:41:44
External Torrent
Update Stats



Images Host

Poster


iMDB
Imdb Picture Title: A Cure for Wellness
Year: 2016
Runtime: 146 minutes
Votes: 12316
Rating: 6.5/10
Language: English, German
Country: USA, Germany
All Genres: Drama, Fantasy, Horror, Mystery, Sci-Fi, Thriller
Plot Outline: An ambitious young executive is sent to retrieve his company's CEO from an idyllic but mysterious "wellness center" at a remote location in the Swiss Alps, but soon suspects that the spa's treatments are not what they seem.
Director: Gore Verbinski
Writing By: Justin Haythe,Justin Haythe,Gore Verbinski,
Produced By: David Crockett,Morgan Des Groseillers,Christoph Fisser,Justin Haythe,Arnon Milchan,Henning Molfenter,Arno Neubauer,Gore Verbinski,Charlie Woebcken,
Music: Benjamin Wallfisch
Plot:

An ambitious young executive is sent to retrieve his company's CEO from an idyllic but mysterious "wellness center" at a remote location in the Swiss Alps. He soon suspects that the spa's miraculous treatments are not what they seem. When he begins to unravel its terrifying secrets, his sanity is tested, as he finds himself diagnosed with the same curious illness that keeps all the guests here longing for the cure.

- Written by 20th Century Fox

An ambitious young executive is sent to retrieve his company's CEO from an idyllic but mysterious "wellness center" at a remote location in the Swiss Alps, but soon suspects that the spa's treatments are not what they seem.

- Written by IMDb Editors
Cast:
Dane DeHaan as Lockhart
Jason Isaacs as Volmer
Mia Goth as Hannah
Ivo Nandi as Enrico
Adrian Schiller as Deputy Director
Celia Imrie as Victoria Watkins
Harry Groener as Pembroke
Tomas Norström as Frank Hill
Ashok Mandanna as Ron Nair
Magnus Krepper as Pieter The Vet
Trailers:
South Korean Trailer
Super Bowl Spot
Trailer #1
New Year's Promo
Trailer #2


Watch-Free-HD     Download

Details
Name:A Cure For Wellness (2016) 720p BluRay x264 Dual Audio [Hindi 5.1 + English 5.1].-.link2downloa...
Description:
Format                                   : Matroska
Format version                           : Version 4 / Version 2
File size                                : 1.38 GiB
Duration                                 : 2 h 26 min
Overall bit rate                         : 1 347 kb/s
Encoded date                             : UTC 2017-05-29 12:10:23
Writing application                      : mkvmerge v9.8.0 ('Kuglblids') 64bit
Writing library                          : libebml v1.3.4 + libmatroska v1.4.5

Video
ID                                       : 1
Format                                   : AVC
Format/Info                              : Advanced Video Codec
Format profile                           : [email protected]
Format settings, CABAC                   : Yes
Format settings, ReFrames                : 4 frames
Codec ID                                 : V_MPEG4/ISO/AVC
Duration                                 : 2 h 26 min
Bit rate                                 : 959 kb/s
Width                                    : 1 280 pixels
Height                                   : 720 pixels
Display aspect ratio                     : 16:9
Frame rate mode                          : Constant
Frame rate                               : 23.976 (24000/1001) FPS
Color space                              : YUV
Chroma subsampling                       : 4:2:0
Bit depth                                : 8 bits
Scan type                                : Progressive
Bits/(Pixel*Frame)                       : 0.043
Stream size                              : 1 006 MiB (71%)
Writing library                          : x264 core 130 r2273 b3065e6
Language                                 : English
Default                                  : Yes
Forced                                   : No
Color range                              : Limited
Color primaries                          : BT.709
Transfer characteristics                 : BT.709
Matrix coefficients                      : BT.709

Audio #1
ID                                       : 2
Format                                   : AAC
Format/Info                              : Advanced Audio Codec
Format profile                           : LC
Codec ID                                 : A_AAC
Duration                                 : 2 h 26 min
Bit rate                                 : 192 kb/s
Channel(s)                               : 6 channels
Channel positions                        : Front: L C R, Side: L R, LFE
Sampling rate                            : 48.0 kHz
Frame rate                               : 46.875 FPS (1024 spf)
Compression mode                         : Lossy
Stream size                              : 202 MiB (14%)
Language                                 : Hindi
Default                                  : Yes
Forced                                   : No

Audio #2
ID                                       : 3
Format                                   : AAC
Format/Info                              : Advanced Audio Codec
Format profile                           : LC
Codec ID                                 : A_AAC
Duration                                 : 2 h 26 min
Bit rate                                 : 192 kb/s
Channel(s)                               : 6 channels
Channel positions                        : Front: L C R, Side: L R, LFE
Sampling rate                            : 48.0 kHz
Frame rate                               : 46.875 FPS (1024 spf)
Compression mode                         : Lossy
Stream size                              : 202 MiB (14%)
Language                                 : Hindi
Default                                  : No
Forced                                   : No




 
 
 
 
 
 
 
 
 





Category:Movies > Hollywood Dub
Lang:Hindi
Total Size:1.38 GB
Info Hash:cc6876885e63fd2760675d53822ce835ec702674
Added By:link2download
Date Added:29-05-2017 14:10:30
Downloads:378

Ratings:rating: 3.5/5 (3.5 Out Of 5) 2 users have rated this torrent (Log in to rate it)


Tracker:
udp://tracker.openbittorrent.com:80/announce


File List: 


Comments

<< Previous      Next >>
1 - 2

[Report] Posted: 30-05-2017 at 10:04:18
KartiKing



Thanks , & Plz Seed ...

[Report] Posted: 30-05-2017 at 17:31:43
KartiKing



this only has hindi audio , no english ...
dont fool others ... change the title

1 - 2
<< Previous      Next >>


Top
Copyright 2018 DownloadHD -|- Page Generated In 1.125827 secs.
-|- RSS Feed -|- Feed Info