Login
Username:
Password:
[Signup]
[Recover Account]


Browse Torrents

Poll


You must be logged in to view polls



Latest Torrents
The.Goldbergs.2013...
- [Size: 311.54 MB]

Unspeakable.S01E07...
- [Size: 762.42 MB]

Drunk.History.S06E...
- [Size: 206.38 MB]

Burden.of.Truth.S0...
- [Size: 360.40 MB]

Drunk.History.S06E...
- [Size: 208.36 MB]


Torrent Details For "Haseena Maan Jaayegi (1999) HDTVRip 720p Hindi AVC ACC [Exclusive] - LatestHDMovies"

Haseena Maan Jaayegi (1999) HDTVRip 720p Hindi AVC ACC [Exclusive] - LatestHDMovies

Download this torrent | Magnet Download
Health:
Seeds: 0
Leechers: 5
Completed:
Last Checked: 23-01-2019 10:08:34
External Torrent
Update Stats



Images Host

Poster


iMDB
Imdb Picture Title: Haseena Maan Jaayegi
Year: 1999
Runtime: 147 minutes
Votes: 2139
Rating: 6.2/10
Language: Hindi
Country: India
All Genres: Comedy, Action, Drama, Romance
Plot Outline: Wealthy Seth Amirchand (Kader Khan) has two problems, namely his two good-for-nothing sons, Sonu (Sanjay Dutt), and Monu (Govinda). Their time is mainly spent on comically attempting to ...
Director: David Dhawan
Writing By: Rumi Jaffery,Imtiaz Patel,Imtiaz Patel,Yunus Sajawal,Yunus Sajawal,
Produced By: Prakash Pange,Smita Thackeray,Prashant Thanawala,
Music: Anu Malik Adesh Shrivastava
Cast:
Sanjay Dutt as Sonu
Govinda as Monu
Karisma Kapoor as Ritu Verma
Pooja Batra as Pooja Verma
Kader Khan as Amirchand
Paresh Rawal as Bhootnath
Satish Kaushik as Kunj Biharilal
Aruna Irani as Santho Verma
Anupam Kher as Gulzarilal Verma
Ashish Vidyarthi as Bhai (gangster)


Watch-Free-HD     Download

Details
Name:Haseena Maan Jaayegi (1999) HDTVRip 720p Hindi AVC ACC [Exclusive] - LatestHDMovies
Description:




[[[[[>SAMPLE<]]]]]
 http://openload.co/f/66LyYOqg...-LatestHDMovies-.mp4




General
Complete name               : Haseena Maan Jaayegi (1999) HDTVRip 720p  Hindi AVC ACC [Exclusive] - LatestHDMovies.mp4
Format                      : MPEG-4
Format profile              : Base Media
Codec ID                    : isom (isom/iso2/avc1/mp41)
File size                   : 3.46 GiB
Duration                    : 2 h 22 min
Overall bit rate            : 3 474 kb/s
Movie name                  : LatestHDMovies
Writing application         : Lavf57.71.100
Cover                       : Yes

Video
ID                          : 1
Format                      : AVC
Format/Info                 : Advanced Video Codec
Format profile              : [email protected]
Format settings             : CABAC / 2 Ref Frames
Format settings, CABAC      : Yes
Format settings, ReFrames   : 2 frames
Format settings, GOP        : M=1, N=25
Codec ID                    : avc1
Codec ID/Info               : Advanced Video Coding
Duration                    : 2 h 22 min
Bit rate                    : 3 271 kb/s
Width                       : 1 280 pixels
Height                      : 544 pixels
Display aspect ratio        : 2.35:1
Frame rate mode             : Constant
Frame rate                  : 29.970 (30000/1001) FPS
Color space                 : YUV
Chroma subsampling          : 4:2:0
Bit depth                   : 8 bits
Scan type                   : Progressive
Bits/(Pixel*Frame)          : 0.157
Stream size                 : 3.26 GiB (94%)

Audio
ID                          : 2
Format                      : AAC
Format/Info                 : Advanced Audio Codec
Format profile              : LC
Codec ID                    : mp4a-40-2
Duration                    : 2 h 22 min
Bit rate mode               : Constant
Bit rate                    : 192 kb/s
Channel(s)                  : 2 channels
Channel positions           : Front: L R
Sampling rate               : 44.1 kHz
Frame rate                  : 43.066 FPS (1024 SPF)
Compression mode            : Lossy
Stream size                 : 199 MiB (6%)
Default                     : Yes
Alternate group             : 1



 
               
Category:Movies > Bollywood
Lang:Hindi
Total Size:3.46 GB
Info Hash:08f07c9331236c6d58f373015a2ef70c9a5d8ca4
Added By:LatestHDMovies
Date Added:01-03-2018 09:30:43
Downloads:450

Ratings:Not Yet Rated (Log in to rate it)


Tracker:
udp://tracker.openbittorrent.com:80/announce


File List: 


Comments

<< Previous      Next >>
1 - 1

[Report] Posted: 02-03-2018 at 09:30:36
James



The print quality is not good, I will appreciate if you can upload in good HD print.
This is all time hit movie, please upload in good HD print.

Regards!
James

1 - 1
<< Previous      Next >>


Top
Copyright 2018 DownloadHD -|- Page Generated In 1.658097 secs.
-|- RSS Feed -|- Feed Info