Login
Username:
Password:
[Signup]
[Recover Account]


Browse Torrents

Poll


You must be logged in to view polls



Latest Torrents
What Men Want (201...
- [Size: 851.39 MB]

What Men Want 2019...
- [Size: 680.15 MB]

Goosebumps 2 Haun...
- [Size: 797.62 MB]

Love.After.Lockup....
- [Size: 389.85 MB]

Gotham.S05E06.13.S...
- [Size: 1.08 GB]


Torrent Details For "18+.Birthday.Sex.2012.TV.Movie.HDRIp.x264.AAC.LLG"

18+.Birthday.Sex.2012.TV.Movie.HDRIp.x264.AAC.LLG

Download this torrent | Magnet Download
Health:
Seeds: 0
Leechers: 0
Completed:
Last Checked: 16-02-2019 17:34:46
External Torrent
Update Stats



Images Host

Poster
No poster


iMDB
Imdb Picture Title: Birthday Sex
Year: 2012
Runtime: 82 minutes
Votes: 45
Rating: 6.1/10
Language: English
Country: USA
All Genres: Adult, Drama
Plot Outline: A gorgeous young woman enjoys the erotic birthday of her dreams in this steamy tale.
Director: Austin Brooks
Writing By: Tina Hawthorne,
Produced By: Iris Adams,
Music: Bruce Edwards
Cast:
Amber Rayne as Mia
Brandon Ruckdashel as Simon
Tanya Tate as Mona
Misty Anderson as Sara
Kenneth Blake as Tyler
Alan Stafford as Frank
Ryan Driller as Mike
Sadie Katz as Kristen


Watch-Free-HD     Download

Details
Name:18+.Birthday.Sex.2012.TV.Movie.HDRIp.x264.AAC.LLG
Description:
******************************Thumbnail:**********************

 

******************************Screenshots:********************

 Screenshot 1

 Screenshot 2

 Screenshot 3

 Screenshot 4

 Screenshot 5

 Screenshot 6

 Screenshot 7

 Screenshot 8

 Screenshot 9

 Screenshot 0

**************************************************************

Complete name                            : 18+.Birthday.Sex.2012.TV.Movie.HDRIp.x264.AAC.LLG.mp4
Format                                   : MPEG-4
Format profile                           : Base Media
Codec ID                                 : isom (isom/iso2/avc1/mp41)
File size                                : 331 MiB
Duration                                 : 1 h 21 min
Overall bit rate                         : 565 kb/s
Writing application                      : Lavf57.83.100

Video
ID                                       : 1
Format                                   : AVC
Format/Info                              : Advanced Video Codec
Format profile                           : [email protected]
Format settings                          : CABAC / 3 Ref Frames
Format settings, CABAC                   : Yes
Format settings, RefFrames               : 3 frames
Codec ID                                 : avc1
Codec ID/Info                            : Advanced Video Coding
Duration                                 : 1 h 21 min
Bit rate                                 : 433 kb/s
Width                                    : 854 pixels
Height                                   : 480 pixels
Display aspect ratio                     : 16:9
Frame rate mode                          : Constant
Frame rate                               : 30.000 FPS
Standard                                 : NTSC
Color space                              : YUV
Chroma subsampling                       : 4:2:0
Bit depth                                : 8 bits
Scan type                                : Progressive
Bits/(Pixel*Frame)                       : 0.035
Stream size                              : 254 MiB (77%)
Language                                 : English
Color range                              : Limited

Audio
ID                                       : 2
Format                                   : AAC
Format/Info                              : Advanced Audio Codec
Format profile                           : LC
Codec ID                                 : mp4a-40-2
Duration                                 : 1 h 21 min
Bit rate mode                            : Constant
Bit rate                                 : 126 kb/s
Channel(s)                               : 2 channels
Channel positions                        : Front: L R
Sampling rate                            : 44.1 kHz
Frame rate                               : 43.066 FPS (1024 SPF)
Compression mode                         : Lossy
Stream size                              : 73.7 MiB (22%)
Language                                 : English
Default                                  : Yes
Alternate group                          : 1

Category:Movies > HDRips
Lang:English  English
Total Size:336.83 MB
Info Hash:421b30a229ae5c0dc2e906bf47545cee81e68c66
Added By:LifeLongg
Date Added:04-03-2018 22:21:00
Downloads:521

Ratings:Not Yet Rated (Log in to rate it)


Tracker:
udp://tracker.openbittorrent.com:80/announce


File List: 


Comments

No comments still posted

Top
Copyright 2018 DownloadHD -|- Page Generated In 0.024913 secs.
-|- RSS Feed -|- Feed Info