Login
Username:
Password:
[Signup]
[Recover Account]


Browse Torrents

Poll


You must be logged in to view polls



Latest Torrents
Real.Time.With.Bil...
- [Size: 1,014.34 MB]

Chaamp 2017 1080p ...
- [Size: 3.93 GB]

Journal.64.2018.DA...
- [Size: 8.74 GB]

K.G.F Chapter 1 20...
- [Size: 883.60 MB]

Alanis.2017.1080p....
- [Size: 5.89 GB]


Torrent Details For "Balu Mahi (2017) 720p HDRip x264 AAC ESubs - 1.2GB - MovCr"

Balu Mahi (2017) 720p HDRip x264 AAC ESubs - 1.2GB - MovCr

Download this torrent | Magnet Download
Health:
Seeds: 0
Leechers: 22
Completed:
Last Checked: 17-11-2018 08:43:34
External Torrent
Update Stats



Images Host

Poster


iMDB
Imdb Picture Title: Balu Mahi
Year: 2017
Runtime: 150 minutes
Votes: 250
Rating: 7.9/10
Language: Urdu, Hindi
Country: Pakistan
All Genres: Romance
Plot Outline: When a young man crashes the wrong wedding, the bride seizes the opportunity to make a run for it and together they attempt to evade her overbearing grandfather.
Director: Haissam Hussain
Writing By: Saad Azhar,
Produced By: Jawad Butt,Umer Gulzari,Sadia Jabbar,Ch. M. Arshad,
Music: Sahir Ali Bagga
Cast:
Osman Khalid Butt as
Ainy Jaffri as
Sadaf Kanwal as
Zeeshan Ali as Zeeshan
Durdana Butt as
Shafqat Cheema as
Adeel Hashmi as
Khurram Pataras as
Bawany Safwan as Assistant Director
Javed Sheikh as


Watch-Free-HD     Download

Details
Name:Balu Mahi (2017) 720p HDRip x264 AAC ESubs - 1.2GB - MovCr
Description:
Balu Mahi (2017) 720p HDRip x264 AAC ESubs - 1.2GB - MovCr

 http://www.imdb.com/title/tt5370442/

 
General
Complete name                            : www.movcr.com - Balu Mahi (2017) 720p HDRip x264 AAC ESubs - 1.2GB - MovCr.mkv
Format                                   : Matroska
Format version                           : Version 4 / Version 2
File size                                : 1.28 GiB
Duration                                 : 2 h 29 min
Overall bit rate                         : 1 228 kb/s
Movie name                               : www.movcr.com
Encoded date                             : UTC 2018-03-06 07:19:13
Writing application                      : mkvmerge v20.0.0 ('I Am The Sun') 64-bit
Writing library                          : libebml v1.3.5 + libmatroska v1.4.8
Attachments                              : 18.03.02-01-35-55.png

Video
ID                                       : 1
Format                                   : AVC
Format/Info                              : Advanced Video Codec
Format profile                           : [email protected]
Format settings                          : CABAC / 4 Ref Frames
Format settings, CABAC                   : Yes
Format settings, RefFrames               : 4 frames
Codec ID                                 : V_MPEG4/ISO/AVC
Duration                                 : 2 h 29 min
Bit rate                                 : 1 100 kb/s
Width                                    : 1 280 pixels
Height                                   : 536 pixels
Display aspect ratio                     : 2.40:1
Frame rate mode                          : Constant
Frame rate                               : 24.000 FPS
Color space                              : YUV
Chroma subsampling                       : 4:2:0
Bit depth                                : 8 bits
Scan type                                : Progressive
Bits/(Pixel*Frame)                       : 0.067
Stream size                              : 1.14 GiB (89%)
Title                                    : www.movcr.com
Writing library                          : x264 core 142 r2479 dd79a61
Encoding settings                        : cabac=1 / ref=1 / deblock=1:0:0 / analyse=0x1:0x111 / me=hex / subme=2 / psy=1 / psy_rd=1.00:0.00 / mixed_ref=0 / me_range=16 / chroma_me=1 / trellis=0 / 8x8dct=0 / cqm=0 / deadzone=21,11 / fast_pskip=1 / chroma_qp_offset=0 / threads=12 / lookahead_threads=4 / sliced_threads=0 / nr=0 / decimate=1 / interlaced=0 / bluray_compat=0 / constrained_intra=0 / bframes=3 / b_pyramid=2 / b_adapt=1 / b_bias=0 / direct=1 / weightb=1 / open_gop=0 / weightp=1 / keyint=240 / keyint_min=24 / scenecut=40 / intra_refresh=0 / rc_lookahead=10 / rc=abr / mbtree=1 / bitrate=1100 / ratetol=1.0 / qcomp=0.60 / qpmin=0 / qpmax=69 / qpstep=4 / vbv_maxrate=20000 / vbv_bufsize=25000 / nal_hrd=none / filler=0 / ip_ratio=1.40 / aq=1:1.00
Default                                  : Yes
Forced                                   : No
Color range                              : Limited
Color primaries                          : BT.709
Transfer characteristics                 : BT.709
Matrix coefficients                      : BT.709

Audio
ID                                       : 2
Format                                   : AAC
Format/Info                              : Advanced Audio Codec
Format profile                           : LC
Codec ID                                 : A_AAC-2
Duration                                 : 2 h 29 min
Bit rate                                 : 128 kb/s
Channel(s)                               : 2 channels
Channel positions                        : Front: L R
Sampling rate                            : 48.0 kHz
Frame rate                               : 46.875 FPS (1024 SPF)
Compression mode                         : Lossy
Delay relative to video                  : -21 ms
Stream size                              : 137 MiB (10%)
Title                                    : www.movcr.com
Language                                 : Urdu
Default                                  : Yes
Forced                                   : No

Text
ID                                       : 3
Format                                   : UTF-8
Codec ID                                 : S_TEXT/UTF8
Codec ID/Info                            : UTF-8 Plain Text
Duration                                 : 2 h 25 min
Bit rate                                 : 52 b/s
Count of elements                        : 1733
Stream size                              : 56.2 KiB (0%)
Title                                    : www.movcr.com
Language                                 : English
Default                                  : Yes
Forced                                   : No


 
 
 
 
 
 
 
 
 
 
Category:Movies > HDRips
Lang:Urdu
Total Size:1.28 GB
Info Hash:995a1a7ffc60fe8d0817a9027ed77fcd77c3067d
Added By:Kingmaker
Date Added:05-03-2018 17:29:00
Downloads:122

Ratings:Not Yet Rated (Log in to rate it)


Tracker:
udp://tracker.openbittorrent.com:80/announce

This Torrent also has backup trackers
URLSeedersLeechersCompleted
http://share.camoe.cn:8080/announce000
http://t.nyaatracker.com:80/announce000
http://asnet.pw:2710/announce000
http://tracker.tfile.co:80/announce130
http://pt.lax.mx:80/announce000
http://tracker.bt-hash.com:443/announce000
http://grifon.info:80/announce000
http://retracker.spark-rostov.ru:80/announce000
http://tr.kxmp.cf:80/announce000
http://tracker.city9x.com:2710/announce0051
http://tracker.tfile.me:80/announce140
http://retracker.telecom.by:80/announce000
http://tracker.electro-torrent.pl:80/announce010
http://open.kickasstracker.com:443/announce220
http://retracker.mgts.by:80/announce0072
http://retracker.bashtel.ru:80/announce000
http://tracker.devil-torrents.pl:80/announce000
http://torrentsmd.eu:8080/announce111
http://ns349743.ip-91-121-106.eu:80/announce000
http://torrentsmd.me:8080/announce000
http://agusiq-torrents.pl:6969/announce000
http://fxtt.ru:80/announce161


File List: 


Comments

<< Previous      Next >>
1 - 1

[Report] Posted: 17-11-2018 at 07:17:22
wiki



SEEds

1 - 1
<< Previous      Next >>


Top
Copyright 2018 DownloadHD -|- Page Generated In 4.856662 secs.
-|- RSS Feed -|- Feed Info