Login
Username:
Password:
[Signup]
[Recover Account]


Browse Torrents

Poll


You must be logged in to view polls



Latest Torrents
Traitors.S01E01.HD...
- [Size: 211.67 MB]

Endeavour.S06E02.H...
- [Size: 408.71 MB]

Top.Gear.S26E01.HD...
- [Size: 473.65 MB]

Baptiste.S01E01.HD...
- [Size: 274.53 MB]

Kursk.2019.HC.HDRi...
- [Size: 1.05 GB]


Torrent Details For "Raaz Reboot 2016 Hindi 720p HDRip x264 AAC { TaRa }"

Raaz Reboot 2016 Hindi 720p HDRip x264 AAC { TaRa }

Download this torrent | Magnet Download
Health:
Seeds: 0
Leechers: 0
Completed:
Last Checked: 12-02-2019 10:24:01
External Torrent
Update Stats



Images Host

Poster


Watch-Free-HD     Download

Details
Name:Raaz Reboot 2016 Hindi 720p HDRip x264 AAC { TaRa }
Description:

Quote:

Raaz Reboot 2016 Hindi 720p HDRip x264 AAC { TaRa }.mkv


===================================================================
General
Complete name               : Raaz Reboot 2016 Hindi 720p HDRip x264 AAC { TaRa }.mkv
Format                      : Matroska
Format version              : Version 4 / Version 2
File size                   : 1.63 GiB
Duration                    : 2 h 7 min
Overall bit rate mode       : Variable
Overall bit rate            : 1 827 kb/s
===================================================================
Video
ID                          : 1
Format                      : AVC
Format/Info                 : Advanced Video Codec
Format profile              : [email protected]
Format settings, CABAC      : Yes
Format settings, ReFrames   : 3 frames
Codec ID                    : V_MPEG4/ISO/AVC
Duration                    : 2 h 7 min
Bit rate mode               : Variable
Bit rate                    : 1 632 kb/s
Maximum bit rate            : 1 800 kb/s
Width                       : 1 280 pixels
Height                      : 544 pixels
Display aspect ratio        : 2.35:1
Frame rate mode             : Constant
Frame rate                  : 30.000 FPS
Color space                 : YUV
Chroma subsampling          : 4:2:0
Bit depth                   : 8 bits
Scan type                   : Progressive
Bits/(Pixel*Frame)          : 0.078
Stream size                 : 1.45 GiB (89%)
Title                       : .....::::: TaRa :::::.....
Language                    : Hindi
Default                     : Yes
Forced                      : No
===================================================================
Audio
ID                          : 2
Format                      : AAC
Format/Info                 : Advanced Audio Codec
Format profile              : LC
Codec ID                    : A_AAC
Duration                    : 2 h 7 min
Bit rate                    : 192 kb/s
Channel(s)                  : 2 channels
Channel positions           : Front: L R
Sampling rate               : 44.1 kHz
Frame rate                  : 43.066 FPS (1024 spf)
Compression mode            : Lossy
Stream size                 : 175 MiB (11%)
Title                       : .....::::: TaRa :::::.....
Language                    : Hindi
Default                     : Yes
Forced                      : No
===================================================================
















































Category:Movies > Bollywood
Lang:Hindi
Total Size:1.72 GB
Info Hash:1a96bcf447bdb44ed95560ecfdd59627ebc3e8ca
Added By:SkTaRa
Date Added:06-04-2017 12:09:29
Downloads:387

Ratings:Not Yet Rated (Log in to rate it)


Tracker:
udp://tracker.openbittorrent.com:80/announce

This Torrent also has backup trackers
URLSeedersLeechersCompleted
http://www.skyts.net:6969/announce000
http://www.opentrackr.org/announce000
http://mgtracker.org:2710/announce000
http://5.79.83.193:2710/announce000
http://109.121.134.121:1337/announce000


File List: 


Comments

No comments still posted

Top
Copyright 2018 DownloadHD -|- Page Generated In 5.792134 secs.
-|- RSS Feed -|- Feed Info