Login
Username:
Password:
[Signup]
[Recover Account]


Browse Torrents

Poll


You must be logged in to view polls



Latest Torrents
Daas Dev (2018) Hi...
- [Size: 708.98 MB]

Chopped.S41E02.Chi...
- [Size: 408.62 MB]

Children.of.the.Sn...
- [Size: 480.63 MB]

Windy.City.Rehab.S...
- [Size: 354.87 MB]

Bobs.Burgers.S09E1...
- [Size: 347.84 MB]


Torrent Details For "English Babu Desi Mem (1996) Movie 1080p x264 Hdrip ACC Audio-HDprintMovies"

English Babu Desi Mem (1996) Movie 1080p x264 Hdrip ACC Audio-HDprintMovies

Download this torrent | Magnet Download
Health:
Seeds: 0
Leechers: 39
Completed:
Last Checked: 20-04-2018 20:51:03
External Torrent
Update Stats



Images Host

Poster


iMDB
Imdb Picture Title: English Babu Desi Mem
Year: 1996
Runtime: 170 minutes
Votes: 1701
Rating: 4.8/10
Country: India
All Genres: Comedy, Drama, Musical, Romance
Plot Outline: Vikram Mayur, a wealthy Indian, born and raised in England, returns to his ancestral home in Mumbai, India to look up his late brother's eight-year-old son Nandu raised by his caring aunt ...
Director: Praveen Nischol
Writing By: G.M. Ayaz,Ali Raza,S. Ali Raza,
Produced By: Praveen Nischol,Jitendra Singh,
Music: Nikhil Vinay
Plot:

Vikram Mayur, a wealthy Indian, born and raised in England, returns to his ancestral home in Mumbai, India to look up his late brother's eight-year-old son Nandu raised by his caring aunt Bijuriya in which Vikram is torn between choosing to take Nandu back to England to learn his family's business, or risk throwing it all way by staying in India to be with Bijuriya whom he slowly falls in love with.

- Written by Anonymous

London-based Gopal Mayur and his second son, Vikram are focused on amazing wealth and fortune, naive and simple-minded Hariya or Hari is focused on simply finding ways to spend money, if possible as quickly as his dad and brother amass it. The family decides the to best way to deal with this situation is to get Hari married. In retaliation Hari takes a plane and flies away. The plane crashes, and everyone thinks that Hari has perished. But Hari has survived on a coast in India, and is looked after by Katariya. Hari falls in love with Katariya, and as a result both get married. Hari is determined to keep this a secret from the rest of the Mayur family at all costs. Katariya gets pregnant and there are complications. On the same day, Hari gets third-degree burns during a fireworks mishap during Diwali. Both pass away in a hospital, leaving the child in care of Bijuriya, Katariya's younger sister, who is a mere child herself. Bijuriya undertakes to look after Nandlal. Years later Vikram gets an international award, and his photographs are shown in magazines all over the world; Bijuriya is a bar dancer; and Nandlal polishes shoes, delivers cigarettes and alcohol. Madadgar, a lawyer by profession, after viewing the magazine photos of Vikram, decides to put forward Nandlal's inheritance to the Mayur family. Vikram comes to India to investigate this claim, and is convinced that Nandlal is indeed his nephew, however, Bijuriya will not go of Nandlal; and Nandlal himself will not accompany his uncle to London, until Bijuriya is married and settled. The problem is that no one is coming forward to marry Bijuriya because of her profession. Losing his patience, Vikram plots to take Nandlal with him, regardless of the consequences.

- Written by rAjOo ([email protected])
Cast:
Shah Rukh Khan as Vikram / Hari / Gopal Mayur
Sonali Bendre as Bijuriya
Rajeshwari as Katariya
Saeed Jaffrey as Lawyer Madadgar
Kiran Kumar as Bheema Khalasi
Baba Brahmbhatt as
Ishita Haria as
James Bond Singh as Nandlal
Sunny Singh as Nandlal (Nandu)
Gulshan Bawra as


Watch-Free-HD     Download

Details
Name:English Babu Desi Mem (1996) Movie 1080p x264 Hdrip ACC Audio-HDprintMovies
Description:


Complete name                            : English Babu Desi Mem (1996) Movie 1080p x264 Hdrip ACC Audio-(Suman142).mp4
Format                                   : MPEG-4
Format profile                           : Base Media
Codec ID                                 : isom (isom/iso2/avc1/mp41)
File size                                : 2.92 GiB
Duration                                 : 2 h 39 min
Overall bit rate mode                    : Variable
Overall bit rate                         : 2 625 kb/s
Writing application                      : Lavf55.33.100

Video
ID                                       : 1
Format                                   : AVC
Format/Info                              : Advanced Video Codec
Format profile                           : [email protected]
Format settings                          : CABAC / 5 Ref Frames
Format settings, CABAC                   : Yes
Format settings, RefFrames               : 5 frames
Codec ID                                 : avc1
Codec ID/Info                            : Advanced Video Coding
Duration                                 : 2 h 39 min
Bit rate                                 : 2 500 kb/s
Width                                    : 1 920 pixels
Height                                   : 1 080 pixels
Display aspect ratio                     : 16:9
Frame rate mode                          : Constant
Frame rate                               : 25.000 FPS
Color space                              : YUV
Chroma subsampling                       : 4:2:0
Bit depth                                : 8 bits
Scan type                                : Progressive
Bits/(Pixel*Frame)                       : 0.048
Stream size                              : 2.77 GiB (95%)
Writing library                          : x264 core 146 r2538 121396c
Encoding settings                        : cabac=1 / ref=6 / deblock=1:0:0 / analyse=0x3:0x111 / me=hex / subme=7 / psy=1 / psy_rd=1.00:0.00 / mixed_ref=1 / me_range=16 / chroma_me=1 / trellis=1 / 8x8dct=1 / cqm=0 / deadzone=21,11 / fast_pskip=1 / chroma_qp_offset=-2 / threads=4 / lookahead_threads=1 / sliced_threads=0 / nr=0 / decimate=1 / interlaced=0 / bluray_compat=0 / constrained_intra=0 / bframes=16 / b_pyramid=1 / b_adapt=1 / b_bias=0 / direct=1 / weightb=1 / open_gop=0 / weightp=2 / keyint=86400 / keyint_min=20 / scenecut=40 / intra_refresh=0 / rc_lookahead=40 / rc=cbr / mbtree=1 / bitrate=2500 / ratetol=1.0 / qcomp=0.60 / qpmin=10 / qpmax=50 / qpstep=4 / vbv_maxrate=2500 / vbv_bufsize=5000 / nal_hrd=none / filler=0 / ip_ratio=1.41 / aq=1:1.00

Audio
ID                                       : 2
Format                                   : AAC
Format/Info                              : Advanced Audio Codec
Format profile                           : LC
Codec ID                                 : mp4a-40-2
Duration                                 : 2 h 39 min
Bit rate mode                            : Variable
Bit rate                                 : 128 kb/s
Maximum bit rate                         : 131 kb/s
Channel(s)                               : 2 channels
Channel positions                        : Front: L R
Sampling rate                            : 44.1 kHz
Frame rate                               : 43.066 FPS (1024 SPF)
Compression mode                         : Lossy
Stream size                              : 146 MiB (5%)
Default                                  : Yes
Alternate group                          : 1








Category:Movies > Bollywood
Lang:Hindi
Total Size:2.92 GB
Info Hash:184e824e74ca12ff3bcf8508f4dbd89b328d0552
Added By:suman142
Date Added:27-03-2018 09:07:47
Downloads:567

Ratings:Not Yet Rated (Log in to rate it)


Tracker:
http://share.camoe.cn:8080/announce

This Torrent also has backup trackers
URLSeedersLeechersCompleted
http://share.camoe.cn:8080/announce000
http://t.nyaatracker.com:80/announce000
http://asnet.pw:2710/announce000
http://tracker.tfile.co:80/announce100
http://pt.lax.mx:80/announce000
http://tracker.bt-hash.com:443/announce000
http://grifon.info:80/announce000
http://retracker.spark-rostov.ru:80/announce000
http://tr.kxmp.cf:80/announce000
http://tracker.city9x.com:2710/announce020
http://tracker.tfile.me:80/announce100
http://retracker.telecom.by:80/announce000
http://tracker.electro-torrent.pl:80/announce010
http://open.kickasstracker.com:443/announce010
http://retracker.mgts.by:80/announce020
http://retracker.bashtel.ru:80/announce000
http://tracker.devil-torrents.pl:80/announce000
http://torrentsmd.eu:8080/announce100
http://ns349743.ip-91-121-106.eu:80/announce000
http://torrentsmd.me:8080/announce100
http://agusiq-torrents.pl:6969/announce000
http://fxtt.ru:80/announce000


File List: 


Comments

<< Previous      Next >>
1 - 1

[Report] Posted: 10-04-2018 at 13:27:19
wiki



:love

1 - 1
<< Previous      Next >>


Top
Copyright 2018 DownloadHD -|- Page Generated In 2.359337 secs.
-|- RSS Feed -|- Feed Info