Login
Username:
Password:
[Signup]
[Recover Account]


Browse Torrents

Poll


You must be logged in to view polls



Latest Torrents
From.Straight.as.t...
- [Size: 896.22 MB]

Cheater 2016 Marat...
- [Size: 2.59 GB]

Live.PD.S03E45.HDT...
- [Size: 1.75 GB]

Overlord.2018.INTE...
- [Size: 18.67 GB]

Crucible.of.the.Va...
- [Size: 1.33 GB]


Torrent Details For "Dulhe Raja (1998) Movie 1080p x264 ACC Audio-Encoded By HDprintMovies"

Dulhe Raja (1998) Movie 1080p x264 ACC Audio-Encoded By HDprintMovies

Download this torrent | Magnet Download
Health:
Seeds: 0
Leechers: 6
Completed:
Last Checked: 23-01-2019 16:26:50
External Torrent
Update Stats



Images Host

Poster


iMDB
Imdb Picture Title: Dulhe Raja
Year: 1998
Runtime: 143 minutes
Votes: 1766
Rating: 6.6/10
Language: Hindi
Country: India
All Genres: Comedy
Plot Outline: Poor Raja opens a fast food restaurant right opposite a five star hotel run by it's owner Singhania, earning his wrath. The wealthy hotel owner uses all his influence to remove Raja, but in...
Director: Harmesh Malhotra
Writing By: Rajeev Kaul,Rajeev Kaul,Anwar Khan,Praful Parekh,Praful Parekh,
Produced By: Harmesh Malhotra,
Music: Anand Chitragupth Milind Chitragupth
Cast:
Govinda as Raja
Raveena Tandon as Kiran Singhania
Kader Khan as K.K. Singhania
Prem Chopra as Bishambar Nath
Mohnish Bahl as Rahul Sinha
Johnny Lever as Bankhey (hotel manager)
Asrani as Police Inspector Azghar Singh
Anjana Mumtaz as Mrs. Singhania
Guddi Maruti as Mrs. Azghar Singh
Sudhir as Nissar Khan


Watch-Free-HD     Download

Details
Name:Dulhe Raja (1998) Movie 1080p x264 ACC Audio-Encoded By HDprintMovies
Description:


Complete name                            : Dulhe Raja (1998) Movie 1080p x264 ACC Audio-Encoded By Suman142.mp4
Format                                   : MPEG-4
Format profile                           : Base Media
Codec ID                                 : isom (isom/iso2/avc1/mp41)
File size                                : 2.60 GiB
Duration                                 : 2 h 23 min
Overall bit rate mode                    : Variable
Overall bit rate                         : 2 587 kb/s
Writing application                      : Lavf55.33.100

Video
ID                                       : 1
Format                                   : AVC
Format/Info                              : Advanced Video Codec
Format profile                           : [email protected]
Format settings                          : CABAC / 5 Ref Frames
Format settings, CABAC                   : Yes
Format settings, RefFrames               : 5 frames
Codec ID                                 : avc1
Codec ID/Info                            : Advanced Video Coding
Duration                                 : 2 h 23 min
Bit rate                                 : 2 500 kb/s
Width                                    : 1 920 pixels
Height                                   : 1 080 pixels
Display aspect ratio                     : 16:9
Frame rate mode                          : Constant
Frame rate                               : 25.000 FPS
Color space                              : YUV
Chroma subsampling                       : 4:2:0
Bit depth                                : 8 bits
Scan type                                : Progressive
Bits/(Pixel*Frame)                       : 0.048
Stream size                              : 2.46 GiB (95%)
Writing library                          : x264 core 148 r2721 72d53ab
Encoding settings                        : cabac=1 / ref=6 / deblock=1:0:0 / analyse=0x3:0x111 / me=hex / subme=7 / psy=1 / psy_rd=1.00:0.00 / mixed_ref=1 / me_range=16 / chroma_me=1 / trellis=1 / 8x8dct=1 / cqm=0 / deadzone=21,11 / fast_pskip=1 / chroma_qp_offset=-2 / threads=4 / lookahead_threads=1 / sliced_threads=0 / nr=0 / decimate=1 / interlaced=0 / bluray_compat=0 / stitchable=1 / constrained_intra=0 / bframes=16 / b_pyramid=1 / b_adapt=1 / b_bias=0 / direct=1 / weightb=1 / open_gop=0 / weightp=2 / keyint=86400 / keyint_min=20 / scenecut=40 / intra_refresh=0 / rc_lookahead=40 / rc=cbr / mbtree=1 / bitrate=2500 / ratetol=1.0 / qcomp=0.60 / qpmin=10 / qpmax=50 / qpstep=4 / vbv_maxrate=2500 / vbv_bufsize=5000 / nal_hrd=none / filler=0 / ip_ratio=1.41 / aq=1:1.00

Audio
ID                                       : 2
Format                                   : AAC
Format/Info                              : Advanced Audio Codec
Format profile                           : LC
Codec ID                                 : mp4a-40-2
Duration                                 : 2 h 23 min
Bit rate mode                            : Variable
Bit rate                                 : 128 kb/s
Maximum bit rate                         : 131 kb/s
Channel(s)                               : 2 channels
Channel positions                        : Front: L R
Sampling rate                            : 44.1 kHz
Frame rate                               : 43.066 FPS (1024 SPF)
Compression mode                         : Lossy
Stream size                              : 132 MiB (5%)
Default                                  : Yes
Alternate group                          : 1











Category:Movies > Bollywood
Lang:Hindi
Total Size:2.60 GB
Info Hash:8ccf87e645712e8d8948e180df3c1b4a431f5c07
Added By:suman142
Date Added:28-03-2018 16:53:13
Downloads:607

Ratings:Not Yet Rated (Log in to rate it)


Tracker:
http://share.camoe.cn:8080/announce

This Torrent also has backup trackers
URLSeedersLeechersCompleted
http://share.camoe.cn:8080/announce000
http://t.nyaatracker.com:80/announce000
http://asnet.pw:2710/announce000
http://tracker.tfile.co:80/announce100
http://pt.lax.mx:80/announce000
http://tracker.bt-hash.com:443/announce000
http://grifon.info:80/announce000
http://retracker.spark-rostov.ru:80/announce000
http://tr.kxmp.cf:80/announce000
http://tracker.city9x.com:2710/announce017
http://tracker.tfile.me:80/announce100
http://retracker.telecom.by:80/announce000
http://tracker.electro-torrent.pl:80/announce000
http://open.kickasstracker.com:443/announce100
http://retracker.mgts.by:80/announce017
http://retracker.bashtel.ru:80/announce000
http://tracker.devil-torrents.pl:80/announce000
http://torrentsmd.eu:8080/announce000
http://ns349743.ip-91-121-106.eu:80/announce000
http://torrentsmd.me:8080/announce000
http://agusiq-torrents.pl:6969/announce000
http://fxtt.ru:80/announce000


File List: 


Comments

<< Previous      Next >>
1 - 1

[Report] Posted: 10-04-2018 at 13:24:39
wiki



:love

1 - 1
<< Previous      Next >>


Top
Copyright 2018 DownloadHD -|- Page Generated In 3.751533 secs.
-|- RSS Feed -|- Feed Info