Login
Username:
Password:
[Signup]
[Recover Account]


Browse Torrents

Poll


You must be logged in to view polls



Latest Torrents
From.Straight.as.t...
- [Size: 896.22 MB]

Cheater 2016 Marat...
- [Size: 2.59 GB]

Live.PD.S03E45.HDT...
- [Size: 1.75 GB]

Overlord.2018.INTE...
- [Size: 18.67 GB]

Crucible.of.the.Va...
- [Size: 1.33 GB]


Torrent Details For "Shakti - The Power - (2002) - 720p - NF-DL Rip - x265 - DD 2.0- [t4n7iR]"

Shakti - The Power - (2002) - 720p - NF-DL Rip - x265 - DD 2.0- [t4n7iR]

Download this torrent | Magnet Download
Health:
Seeds: 0
Leechers: 2
Completed:
Last Checked: 12-12-2018 17:27:17
External Torrent
Update Stats



Images Host

Poster


iMDB
Imdb Picture Original Title: Shakthi: The Power
Title: Shakti
Year: 2002
Runtime: 170 minutes
Votes: 3974
Rating: 6.1/10
Language: Hindi, English
Country: India
All Genres: Action, Drama
Plot Outline: A couple visits the husband's family in India and finds itself in the middle of a fratricidal battle.
Tagline: Story of a spirited woman whose child was taken away
Director: Krishna Vamshi
Writing By: Krishna Vamshi,Kamal Pandey,
Produced By: Boney Kapoor,Beena Shah,Rajesh Shah,Sridevi,
Music: Ismail Darbar
Cast:
Karisma Kapoor as Nandini
Nana Patekar as Narasimha
Sanjay Kapoor as Shekhar
Jai Gidwani as Raja
Shah Rukh Khan as Jaisingh (Drifter)
Deepti Naval as Shekhar's mother
Aishwarya Rai Bachchan as Dream Girl
Vijay Raaz as Beeja
Tiku Talsania as Nandini's uncle
Jaspal Bhatti as Nandini's uncle


Watch-Free-HD     Download

Details
Name:Shakti - The Power - (2002) - 720p - NF-DL Rip - x265 - DD 2.0- [t4n7iR]
Description:




Quote:

General
Complete name : Shakti - The Power - (2002) - 720p - NF-DL Rip - x265 - DD 2.0- [t4n7iR].mkv
Format : Matroska
Format version : Version 4 / Version 2
File size : 1.43 GiB
Duration : 2 h 47 min
Overall bit rate : 1 218 kb/s
Movie name : Shakti - The [email protected]
Encoded date : UTC 2018-03-28 21:53:10
Cover : Yes
Attachments : cover

Video
ID : 1
Format : HEVC
Format/Info : High Efficiency Video Coding
Format profile : [email protected]@Main
Codec ID : V_MPEGH/ISO/HEVC
Duration : 2 h 47 min
Bit rate : 1 025 kb/s
Width : 1 280 pixels
Height : 544 pixels
Display aspect ratio : 2.35:1
Frame rate mode : Constant
Frame rate : 25.000 FPS
Color space : YUV
Chroma subsampling : 4:2:0
Bit depth : 8 bits
Bits/(Pixel*Frame) : 0.059
Stream size : 1.20 GiB (84%)
Title : t4n7iR
Language : English
Default : Yes
Forced : No

Audio
ID : 2
Format : AC-3
Format/Info : Audio Coding 3
Codec ID : A_AC3
Duration : 2 h 47 min
Bit rate mode : Constant
Bit rate : 192 kb/s
Channel(s) : 2 channels
Channel positions : Front: L R
Sampling rate : 48.0 kHz
Frame rate : 31.250 FPS (1536 SPF)
Bit depth : 16 bits
Compression mode : Lossy
Stream size : 230 MiB (16%)
Title : t4n7iR
Language : Hindi
Service kind : Complete Main
Default : Yes
Forced : No

Text
ID : 3
Format : UTF-8
Codec ID : S_TEXT/UTF8
Codec ID/Info : UTF-8 Plain Text
Duration : 2 h 43 min
Bit rate : 46 b/s
Count of elements : 1853
Stream size : 55.4 KiB (0%)
Title : t4n7iR
Language : English
Default : Yes
Forced : No



















Category:Movies > HEVC
Lang:Hindi
Total Size:1.43 GB
Info Hash:e61dbbe22b79ef80133f3a0915e5698c8cad7719
Added By:t4n7iR
Date Added:28-03-2018 23:03:51
Downloads:363

Ratings:Not Yet Rated (Log in to rate it)


Tracker:
http://jiotorrents.net/announce.php?pk=d7474d9c7c536b05a1d8a325c8236eb419131fb2


File List: 


Comments

<< Previous      Next >>
1 - 1

[Report] Posted: 14-04-2018 at 11:17:54
wiki



:love  :love

1 - 1
<< Previous      Next >>


Top
Copyright 2018 DownloadHD -|- Page Generated In 3.429775 secs.
-|- RSS Feed -|- Feed Info