Login
Username:
Password:
[Signup]
[Recover Account]


Browse Torrents

Poll


You must be logged in to view polls



Latest Torrents
Call.The.Midwife.S...
- [Size: 340.85 MB]

Top.Gear.S26E01.RE...
- [Size: 1.41 GB]

Fast.Layne.S01E01....
- [Size: 233.06 MB]

Lethal.Admirer.201...
- [Size: 1.29 GB]

Call.The.Midwife.S...
- [Size: 949.09 MB]


Torrent Details For "Mastizaade - (2016) - 720p WEB-RIP - x265 - AAC - Esub - [t4n7iR]"

Mastizaade - (2016) - 720p WEB-RIP - x265 - AAC - Esub - [t4n7iR]

Download this torrent | Magnet Download
Health:
Seeds: 0
Leechers: 0
Completed:
Last Checked: 15-02-2019 09:35:59
External Torrent
Update Stats



Images Host

Poster


iMDB
Imdb Picture Title: Mastizaade
Year: 2016
Runtime: 119 minutes
Votes: 2065
Rating: 2.4/10
Language: Hindi
Country: India
All Genres: Comedy
Plot Outline: Two womanizing bachelors fall in love with twin sisters who run a sex addiction clinic.
Director: Milap Zaveri
Writing By: Mushtaq Sheikh,Milap Zaveri,Mushtaq Sheikh,Milap Zaveri,
Produced By: Anoop Ram Kumar,Pritish Nandy,Rangita Pritish Nandy,
Music: Sanjoy Chowdhury
Cast:
Tusshar Kapoor as Sunny Kele
Vir Das as Aditya Chothia
Sunny Leone as Laila Lele / Lily Lele
Asrani as U.R. Ashit
Shaad Randhawa as Deshpremi Singh
Suresh Menon as Son Das
Sushmita Mukherjee as Seema Lele
Riteish Deshmukh as Deep
Harshada Kulkarni as Alcoholic Girl 1
Rina Charaniya as Alcoholic Girl 2
Trailers:
Mastizaade Official Trailer


Watch-Free-HD     Download

Details
Name:Mastizaade - (2016) - 720p WEB-RIP - x265 - AAC - Esub - [t4n7iR]
Description:




Quote:

General
Complete name               : Mastizaade - (2016) - 720p WEB-RIP - x265 - AAC - Esub - [t4n7iR].mkv
Format                      : Matroska
Format version              : Version 4 / Version 2
File size                   : 931 MiB
Duration                    : 1 h 46 min
Overall bit rate            : 1 221 kb/s
Movie name                  : [email protected]
Encoded date                : UTC 2018-04-01 22:20:12
Cover                       : Yes
Attachments                 : cover

Video
ID                          : 1
Format                      : HEVC
Format/Info                 : High Efficiency Video Coding
Format profile              : [email protected]@Main
Codec ID                    : V_MPEGH/ISO/HEVC
Duration                    : 1 h 46 min
Bit rate                    : 1 025 kb/s
Width                       : 1 280 pixels
Height                      : 544 pixels
Display aspect ratio        : 2.35:1
Frame rate mode             : Constant
Frame rate                  : 24.000 FPS
Color space                 : YUV
Chroma subsampling          : 4:2:0
Bit depth                   : 8 bits
Bits/(Pixel*Frame)          : 0.061
Stream size                 : 781 MiB (84%)
Title                       : t4n7iR
Language                    : English
Default                     : Yes
Forced                      : No

Audio
ID                          : 2
Format                      : AAC
Format/Info                 : Advanced Audio Codec
Format profile              : LC
Codec ID                    : A_AAC-2
Duration                    : 1 h 46 min
Bit rate                    : 192 kb/s
Channel(s)                  : 2 channels
Channel positions           : Front: L R
Sampling rate               : 48.0 kHz
Frame rate                  : 46.875 FPS (1024 SPF)
Compression mode            : Lossy
Stream size                 : 148 MiB (16%)
Title                       : t4n7iR
Language                    : Hindi
Default                     : Yes
Forced                      : No

Text
ID                          : 3
Format                      : UTF-8
Codec ID                    : S_TEXT/UTF8
Codec ID/Info               : UTF-8 Plain Text
Duration                    : 1 h 45 min
Bit rate                    : 64 b/s
Count of elements           : 1941
Stream size                 : 49.9 KiB (0%)
Title                       : t4n7iR
Language                    : English
Default                     : Yes
Forced                      : No


















Category:Movies > Bollywood
Lang:Hindi
Total Size:930.96 MB
Info Hash:5bd715a2f2276e10f2f7972ee04d8642ba4d93a7
Added By:t4n7iR
Date Added:01-04-2018 22:22:05
Downloads:527

Ratings:Not Yet Rated (Log in to rate it)


Tracker:
http://jiotorrents.net/announce.php?pk=d7474d9c7c536b05a1d8a325c8236eb419131fb2


File List: 


Comments

<< Previous      Next >>
1 - 2

[Report] Posted: 02-04-2018 at 09:33:11
aayush786



plss seed all the torrent of your's
so slow but awesome work..bro

[Report] Posted: 02-04-2018 at 12:37:22
t4n7iR



seedbox is down, currently seeding over 300+ torrent from home client, thats why speed is low

but don't worry, will seed them all for long time

1 - 2
<< Previous      Next >>


Top
Copyright 2018 DownloadHD -|- Page Generated In 3.380336 secs.
-|- RSS Feed -|- Feed Info