Login
Username:
Password:
[Signup]
[Recover Account]


Browse Torrents

Poll


You must be logged in to view polls



Latest Torrents
What Men Want (201...
- [Size: 851.39 MB]

What Men Want 2019...
- [Size: 680.15 MB]

Goosebumps 2 Haun...
- [Size: 797.62 MB]

Love.After.Lockup....
- [Size: 389.85 MB]

Gotham.S05E06.13.S...
- [Size: 1.08 GB]


Torrent Details For "Barsaat (1995) Movie 720p x264 HDrip -HDprintMovies"

Barsaat (1995) Movie 720p x264 HDrip -HDprintMovies

Download this torrent | Magnet Download
Health:
Seeds: 0
Leechers: 14
Completed:
Last Checked: 18-07-2018 16:31:19
External Torrent
Update Stats



Images Host

Poster


iMDB
Imdb Picture Title: Barsaat
Year: 1995
Runtime: 166 minutes
Votes: 858
Rating: 5.4/10
Language: Hindi
Country: India
All Genres: Action, Romance
Plot Outline: Badal comes from a rural village to take an enrollment into a college in the city. He meets his fellow collegian, Tina Oberoi and both gets acquainted with each other and after a few ...
Director: Rajkumar Santoshi
Writing By: Shyam Gupta,Rajkumar Santoshi,Rajkumar Santoshi,Rajkumar Santoshi,
Produced By: Sunny Deol,Dharmendra,Rajesh Khanna,
Music: Louis Banks Shravan Rathod Nadeem Saifi
Cast:
Bobby Deol as Badal
Twinkle Khanna as Tina Oberoi
Raj Babbar as Dinesh Oberoi
Mukesh Khanna as Bhairon (Badal's Father)
Harish Patel as Damru 'Danny'
Anjan Srivastav as Maula Ram
Bharat Kapoor as R.K. Mehra
Ashwin Kaushal as Bhushi
Vijay Kashyap as Kapurchand (College Principal)
Suhas Bhalekar as


Watch-Free-HD     Download

Details
Name:Barsaat (1995) Movie 720p x264 HDrip -HDprintMovies
Description:


General
Unique ID                                : 157437463532107634566950931366767690289 (0x76715A3FF653BFCBF32415B7CC4F0231)
Complete name                            : D:\[email protected]@HD$2\Barsaat (1995) Movie 720p x264 HDrip -(Suman142).mkv
Format                                   : Matroska
Format version                           : Version 4 / Version 2
File size                                : 2.78 GiB
Duration                                 : 2 h 45 min
Overall bit rate                         : 2 405 kb/s
Encoded date                             : UTC 2018-04-06 08:59:56
Writing application                      : mkvmerge v21.0.0 64-bit
Writing library                          : libebml v1.3.5 + libmatroska v1.4.8

Video
ID                                       : 2
Format                                   : AVC
Format/Info                              : Advanced Video Codec
Format profile                           : [email protected]
Format settings                          : 1 Ref Frames
Format settings, CABAC                   : No
Format settings, RefFrames               : 1 frame
Format settings, GOP                     : M=1, N=13
Codec ID                                 : V_MPEG4/ISO/AVC
Duration                                 : 2 h 45 min
Bit rate                                 : 2 307 kb/s
Width                                    : 1 280 pixels
Height                                   : 720 pixels
Display aspect ratio                     : 16:9
Frame rate mode                          : Constant
Frame rate                               : 25.000 FPS
Color space                              : YUV
Chroma subsampling                       : 4:2:0
Bit depth                                : 8 bits
Scan type                                : Progressive
Bits/(Pixel*Frame)                       : 0.100
Stream size                              : 2.67 GiB (96%)
Title                                    : Encoded By Suman142
Default                                  : Yes
Forced                                   : No

Audio
ID                                       : 1
Format                                   : AAC
Format/Info                              : Advanced Audio Codec
Format profile                           : HE-AAC / LC
Format settings                          : Implicit
Codec ID                                 : A_AAC-2
Duration                                 : 2 h 45 min
Bit rate                                 : 96.0 kb/s
Channel(s)                               : 2 channels
Channel positions                        : Front: L R
Sampling rate                            : 48.0 kHz / 24.0 kHz
Frame rate                               : 23.438 FPS (1024 SPF)
Compression mode                         : Lossy
Stream size                              : 114 MiB (4%)
Default                                  : Yes
Forced                                   : No
















Category:Movies > Bollywood
Lang:Hindi
Total Size:2.78 GB
Info Hash:1e289c29afff1bb2ef02a86fe8d51179048b2e30
Added By:suman142
Date Added:06-04-2018 11:07:59
Downloads:324

Ratings:Not Yet Rated (Log in to rate it)


Tracker:
http://share.camoe.cn:8080/announce

This Torrent also has backup trackers
URLSeedersLeechersCompleted
http://share.camoe.cn:8080/announce000
http://t.nyaatracker.com:80/announce010
http://asnet.pw:2710/announce000
http://tracker.tfile.co:80/announce100
http://pt.lax.mx:80/announce000
http://tracker.bt-hash.com:443/announce000
http://grifon.info:80/announce000
http://retracker.spark-rostov.ru:80/announce000
http://tr.kxmp.cf:80/announce000
http://tracker.city9x.com:2710/announce000
http://tracker.tfile.me:80/announce100
http://retracker.telecom.by:80/announce000
http://tracker.electro-torrent.pl:80/announce010
http://open.kickasstracker.com:443/announce030
http://retracker.mgts.by:80/announce000
http://retracker.bashtel.ru:80/announce000
http://tracker.devil-torrents.pl:80/announce000
http://torrentsmd.eu:8080/announce000
http://ns349743.ip-91-121-106.eu:80/announce000
http://torrentsmd.me:8080/announce000
http://agusiq-torrents.pl:6969/announce000
http://fxtt.ru:80/announce000


File List: 


Comments

<< Previous      Next >>
1 - 1

[Report] Posted: 10-04-2018 at 13:07:52
wiki



:love  B)

1 - 1
<< Previous      Next >>


Top
Copyright 2018 DownloadHD -|- Page Generated In 4.281641 secs.
-|- RSS Feed -|- Feed Info