Login
Username:
Password:
[Signup]
[Recover Account]


Browse Torrents

Poll


You must be logged in to view polls



Latest Torrents
Suspiria 2018 1080...
- [Size: 4.40 GB]

Bohemian Rhapsody ...
- [Size: 4.41 GB]

The.Kitchen.S20E02...
- [Size: 687.61 MB]

What Men Want (201...
- [Size: 851.39 MB]

What Men Want 2019...
- [Size: 680.15 MB]


Torrent Details For "The Unborn (2009) 1080p [Hindi Audio Org VCD DD 2.0 @ 224 Kbps] [Dzrg Torrents®].mkv"

The Unborn (2009) 1080p [Hindi Audio Org VCD DD 2.0 @ 224 Kbps] [Dzrg Torrents®].mkv

Download this torrent | Magnet Download
Health:
Seeds: 0
Leechers: 11
Completed:
Last Checked: 02-01-2019 11:16:47
External Torrent
Update Stats



Images Host

Poster


iMDB
Imdb Picture Title: The Unborn
Year: 2009
Runtime: 88 minutes
Votes: 43744
Rating: 4.8/10
Language: English, Hebrew
Country: USA
All Genres: Drama, Horror, Mystery, Thriller
Plot Outline: A young woman fights the spirit that is slowly taking possession of her.
Tagline: Evil will do anything to live.
Director: David S. Goyer
Writing By: David S. Goyer,
Produced By: Michael Bay,William S. Beasley,Jessika Borsiczky,Andrew Form,Bradley Fuller,
Music: Ramin Djawadi
Plot:

While babysitting a boy and his baby brother, Casey Beldon has a dreadful nightmare involving a weird dog and an evil child, and she tells her best friend Romy over the phone. Casey is haunted by this boy, and when she goes to the ophthalmologist, he asks if she has a twin brother or sister. She asks her father and discovers that her mother lost a son that died in the womb. Casey suspects that she is haunted by the spirit of her brother. She finds a letter addressed to a woman called Sofi Kozma and a creepy picture at home that belonged to her mother. She goes with Romy to a retirement home to meet Sofi, a survivor of the experiments during the Holocaust. But Sofi tells Casey that she had never met her mother and later calls Casey to tell her she is in great danger.

- Written by Claudio Carvalho, Rio de Janeiro, Brazil

A young woman fights the spirit that is slowly taking possession of her.

- Written by Anonymous
Cast:
Odette Annable as Casey Beldon
Gary Oldman as Rabbi Sendak
Cam Gigandet as Mark
Meagan Good as Romy
Idris Elba as Arthur Wyndham
Jane Alexander as Sofi Kozma
Atticus Shaffer as Matty Newton
James Remar as Gordon Beldon
Carla Gugino as Janet Beldon
C.S. Lee as Dr. Lester Caldwell
Trailers:
The Unborn: Trailer


Watch-Free-HD     Download

Details
Name:The Unborn (2009) 1080p [Hindi Audio Org VCD DD 2.0 @ 224 Kbps] [Dzrg Torrents®].mkv
Description:





The Unborn (2009) 1080p [Hindi Audio Org VCD DD 2.0 @ 224 Kbps] [Dzrg Torrents®].mkv









  
  
  
  









General
Format                                   : Matroska
Format version                           : Version 4 / Version 2
File size                                : 1.69 GiB
Duration                                 : 1 h 28 min
Overall bit rate                         : 2 727 kb/s
Movie name                               : The Unborn (2009) 1080p [Hindi Audio Org VCD DD 2.0 @ 224 Kbps] [Dzrg Torrents®].mkv
Encoded date                             : UTC 2017-06-12 14:07:03
Writing application                      : mkvmerge v9.9.0 ('Pick Up') 64bit
Writing library                          : libebml v1.3.4 + libmatroska v1.4.5







Video
ID                                       : 1
Format                                   : AVC
Format/Info                              : Advanced Video Codec
Format profile                           : [email protected]
Format settings, CABAC                   : Yes
Format settings, ReFrames                : 4 frames
Codec ID                                 : V_MPEG4/ISO/AVC
Duration                                 : 1 h 28 min
Bit rate                                 : 2 500 kb/s
Width                                    : 1 920 pixels
Height                                   : 800 pixels
Display aspect ratio                     : 2.40:1
Frame rate mode                          : Constant
Frame rate                               : 23.976 (23976/1000) FPS
Color space                              : YUV
Chroma subsampling                       : 4:2:0
Bit depth                                : 8 bits
Scan type                                : Progressive
Bits/(Pixel*Frame)                       : 0.068
Stream size                              : 1.55 GiB (92%)
Title                                    : The Unborn (2009) 1080p [Dzrg Torrents®]
Writing library                          : x264 core 148 r2597M e86f3a1
Language                                 : English
Default                                  : Yes
Forced                                   : No







Audio
ID                                       : 2
Format                                   : AC-3
Format/Info                              : Audio Coding 3
Mode extension                           : CM (complete main)
Format settings, Endianness              : Big
Codec ID                                 : A_AC3
Duration                                 : 1 h 28 min
Bit rate mode                            : Constant
Bit rate                                 : 224 kb/s
Channel(s)                               : 2 channels
Channel positions                        : Front: L R
Sampling rate                            : 48.0 kHz
Frame rate                               : 31.250 FPS (1536 spf)
Bit depth                                : 16 bits
Compression mode                         : Lossy
Stream size                              : 142 MiB (8%)
Title                                    : [Hindi Audio Org VCD DD 2.0 @ 224 Kbps] [Dzrg Torrents®]
Language                                 : Hindi
Default                                  : Yes
Forced                                   : No






Special Thanks To TiTan Bro For The Audio








Seeding Will Be Slow..So Please Have Little Bit Of Patience While Downloading..!!



Category:Movies > Hollywood Dub
Lang:Hindi
Total Size:1.72 GB
Info Hash:1969a5d37db671be65f944747943eca80d317e01
Added By:DzrgTorrents
Date Added:12-06-2017 15:50:40
Downloads:588

Ratings:Not Yet Rated (Log in to rate it)


Tracker:
udp://tracker.trackerfix.com:85/announce


File List: 


Comments

<< Previous      Next >>
1 - 1

[Report] Posted: 13-06-2017 at 05:42:49
RomanEmpire



Thanks Dzrg
Nice To See You Here

1 - 1
<< Previous      Next >>


Top
Copyright 2018 DownloadHD -|- Page Generated In 4.001637 secs.
-|- RSS Feed -|- Feed Info