Login
Username:
Password:
[Signup]
[Recover Account]


Browse Torrents

Poll


You must be logged in to view polls



Latest Torrents
Grown-ish.S02E09.7...
- [Size: 517.32 MB]

Gordon.Ramsays.24....
- [Size: 1.04 GB]

Grown-ish.S02E09.W...
- [Size: 169.74 MB]

Burden.of.Truth.S0...
- [Size: 858.03 MB]

Gordon.Ramsays.24....
- [Size: 347.93 MB]


Torrent Details For "Vijaypath (1994) HDRip 720p Hindi H.264 AAC [Exclusive] - LatestHDMovies"

Vijaypath (1994) HDRip 720p Hindi H.264 AAC [Exclusive] - LatestHDMovies

Download this torrent | Magnet Download
Health:
Seeds: 0
Leechers: 11
Completed: 295 
Last Checked: 19-11-2018 06:37:05
External Torrent
Update Stats



Images Host

Poster


iMDB
Imdb Picture Title: Vijaypath
Year: 1994
Runtime: 163 minutes
Votes: 488
Rating: 5.0/10
Language: Hindi
Country: India
All Genres: Action, Drama, Thriller
Plot Outline: When a notorious criminal is apprehended by an industrious inspector and subsequently convicted by the officer's brother, he seeks the ultimate revenge against the family.
Director: Farogh Siddique
Writing By: Talat Rekhi,Talat Rekhi,
Produced By: Dhirajlal Shah,
Music: Anu Malik
Cast:
Ajay Devgn as Karan
Tabu as Mohini 'Mona'
Suresh Oberoi as Inspector Rajesh Saxena
Reema Lagoo as Mrs. Saxena
Gulshan Grover as Shakti B. Singh
Danny Denzongpa as Dilawar Ujagar Singh
Vikas Anand as Judge Saxena
Ram Mohan as
Aparajita as Mohini's mom
Anant Jog as


Watch-Free-HD     Download

Details
Name:Vijaypath (1994) HDRip 720p Hindi H.264 AAC [Exclusive] - LatestHDMovies
Description:




[[>>SAMPLE<<]]
 http://oload.stream/f/kP3lWrL...es___TeamSHAHID-.mp4







General
Unique ID                   : 210105546233243596334204048726871555271 (0x9E10DB364BD2EA1AD25759209604BCC7)
Complete name               : C:\Users\SHAHID\Videos\Vijaypath (1994) HDRip 720p Hindi H.264 AAC [Exclusive] - LatestHDMovies.mkv
Format                      : Matroska
Format version              : Version 4 / Version 2
File size                   : 1.37 GiB
Duration                    : 2 h 19 min
Overall bit rate            : 1 403 kb/s
Movie name                  : LatestHDMovies | TeamSHAHID
Encoded date                : UTC 2018-04-29 05:52:23
Writing application         : mkvmerge v21.0.0 ('Tardigrades Will Inherit The Earth') 32-bit
Writing library             : libebml v1.3.5 + libmatroska v1.4.8
Cover                       : Yes
Attachments                 : Cover.jpg

Video
ID                          : 1
Format                      : AVC
Format/Info                 : Advanced Video Codec
Format profile              : [email protected]
Format settings             : 3 Ref Frames
Format settings, CABAC      : No
Format settings, ReFrames   : 3 frames
Codec ID                    : V_MPEG4/ISO/AVC
Duration                    : 2 h 19 min
Bit rate                    : 1 300 kb/s
Width                       : 1 280 pixels
Height                      : 544 pixels
Display aspect ratio        : 2.35:1
Frame rate mode             : Constant
Frame rate                  : 25.000 FPS
Color space                 : YUV
Chroma subsampling          : 4:2:0
Bit depth                   : 8 bits
Scan type                   : Progressive
Bits/(Pixel*Frame)          : 0.075
Stream size                 : 1.27 GiB (93%)
Title                       : LatestHDMovies - TeamSHAHID
Writing library             : x264 core 135
Encoding settings           : cabac=0 / ref=3 / deblock=1:0:0 / analyse=0x1:0x111 / me=hex / subme=7 / psy=1 / psy_rd=1.00:0.00 / mixed_ref=1 / me_range=16 / chroma_me=1 / trellis=1 / 8x8dct=0 / cqm=0 / deadzone=21,11 / fast_pskip=1 / chroma_qp_offset=-2 / threads=2 / lookahead_threads=1 / sliced_threads=0 / nr=0 / decimate=1 / interlaced=0 / bluray_compat=0 / constrained_intra=0 / bframes=0 / weightp=0 / keyint=50 / keyint_min=5 / scenecut=40 / intra_refresh=0 / rc_lookahead=40 / rc=abr / mbtree=1 / bitrate=1300 / ratetol=1.0 / qcomp=0.60 / qpmin=0 / qpmax=51 / qpstep=4 / ip_ratio=1.40 / aq=1:1.00
Language                    : Hindi
Default                     : Yes
Forced                      : No

Audio
ID                          : 2
Format                      : AAC
Format/Info                 : Advanced Audio Codec
Format profile              : LC
Codec ID                    : A_AAC-2
Duration                    : 2 h 19 min
Bit rate                    : 96.0 kb/s
Channel(s)                  : 2 channels
Channel positions           : Front: L R
Sampling rate               : 44.1 kHz
Frame rate                  : 43.066 FPS (1024 SPF)
Compression mode            : Lossy
Delay relative to video     : -36 ms
Stream size                 : 95.8 MiB (7%)
Title                       : LatestHDMovies - TeamSHAHID
Language                    : Hindi
Default                     : Yes
Forced                      : No



 
                       
Category:Movies > Bollywood
Lang:Hindi
Total Size:1.37 GB
Info Hash:fc2623274281056f561b0e2196f5e4438fe8d657
Added By:LatestHDMovies
Date Added:29-04-2018 06:59:42
Downloads:526

Ratings:Not Yet Rated (Log in to rate it)


Tracker:
udp://tracker.openbittorrent.com:80/announce


File List: 


Comments

<< Previous      Next >>
1 - 2

[Report] Posted: 29-04-2018 at 09:04:30
qamarabbas786



thnx bhai jaan aisi thar ki movie i like

[Report] Posted: 19-11-2018 at 06:36:10
wiki



Health: ZERO
Seeds: ZERO
ADmin Seeds Please  :(

1 - 2
<< Previous      Next >>


Top
Copyright 2018 DownloadHD -|- Page Generated In 2.759348 secs.
-|- RSS Feed -|- Feed Info