Login
Username:
Password:
[Signup]
[Recover Account]


Browse Torrents

Poll


You must be logged in to view polls



Latest Torrents
Kursk.2019.HC.HDRi...
- [Size: 1.05 GB]

Evil.Lives.Here.S0...
- [Size: 220.93 MB]

Call.The.Midwife.S...
- [Size: 339.36 MB]

Call.The.Midwife.S...
- [Size: 340.85 MB]

Top.Gear.S26E01.RE...
- [Size: 1.41 GB]


Torrent Details For "[Amazon Prime Exclusive] Going Viral Pvt. Ltd 1080p WEBHD (Full Season) [JamesBond007] Team Jio"

[Amazon Prime Exclusive] Going Viral Pvt. Ltd 1080p WEBHD (Full Season) [JamesBond007] Team Jio

Download this torrent | Magnet Download
Health:
Seeds: 0
Leechers: 4
Completed:
Last Checked: 18-08-2018 13:31:51
External Torrent
Update Stats



Images Host

Poster


Watch-Free-HD     Download

Details
Name:[Amazon Prime Exclusive] Going Viral Pvt. Ltd 1080p WEBHD (Full Season) [JamesBond007] Team Jio
Description:




Quote:

Format                                   : MPEG-4
Format profile                           : Base Media
Codec ID                                 : isom (isom/iso2/avc1/mp41)
File size                                : 441 MiB
Duration                                 : 26 min 41 s
Overall bit rate                         : 2 310 kb/s
Writing application                      : Lavf54.29.104

Video
ID                                       : 1
Format                                   : AVC
Format/Info                              : Advanced Video Codec
Format profile                           : [email protected]
Format settings, CABAC                   : Yes
Format settings, RefFrames               : 4 frames
Codec ID                                 : avc1
Codec ID/Info                            : Advanced Video Coding
Duration                                 : 26 min 41 s
Bit rate                                 : 2 215 kb/s
Width                                    : 1 920 pixels
Height                                   : 1 080 pixels
Display aspect ratio                     : 16:9
Frame rate mode                          : Constant
Frame rate                               : 25.000 FPS
Color space                              : YUV
Chroma subsampling                       : 4:2:0
Bit depth                                : 8 bits
Scan type                                : Progressive
Bits/(Pixel*Frame)                       : 0.043
Stream size                              : 415 MiB (94%)
Writing library                          : x264 core 129
Encoding settings                        : cabac=1 / ref=3 / deblock=1:0:0 / analyse=0x3:0x113 / me=hex / subme=7 / psy=1 / psy_rd=1.00:0.00 / mixed_ref=1 / me_range=16 / chroma_me=1 / trellis=1 / 8x8dct=1 / cqm=0 / deadzone=21,11 / fast_pskip=1 / chroma_qp_offset=-2 / threads=6 / lookahead_threads=1 / sliced_threads=0 / nr=0 / decimate=1 / interlaced=0 / bluray_compat=0 / constrained_intra=0 / bframes=3 / b_pyramid=2 / b_adapt=1 / b_bias=0 / direct=1 / weightb=1 / open_gop=0 / weightp=2 / keyint=250 / keyint_min=25 / scenecut=40 / intra_refresh=0 / rc_lookahead=40 / rc=abr / mbtree=1 / bitrate=2215 / ratetol=1.0 / qcomp=0.60 / qpmin=0 / qpmax=69 / qpstep=4 / ip_ratio=1.40 / aq=1:1.00

Audio
ID                                       : 2
Format                                   : MPEG Audio
Format version                           : Version 1
Format profile                           : Layer 3
Mode                                     : Joint stereo
Mode extension                           : MS Stereo
Codec ID                                 : 6B
Duration                                 : 26 min 41 s
Bit rate mode                            : Constant
Bit rate                                 : 128 kb/s
Channel(s)                               : 2 channels
Sampling rate                            : 44.1 kHz
Compression mode                         : Lossy
Stream size                              : 24.4 MiB (6%)
Writing library                          : LAME3.99.5
Default                                  : Yes
Alternate group                          : 1

 
 
 
 
 
 
Category:TV > WEB-HD
Lang:Unknown/NA
Total Size:3.21 GB
Info Hash:691405f19ac0d7a157210566524e3982d35e72f2
Added By:TeamJio
Date Added:07-05-2018 05:11:28
Downloads:512

Ratings:Not Yet Rated (Log in to rate it)


Tracker:
udp://tracker.coppersurfer.tk:6969/announce


File List: 


Comments

No comments still posted

Top
Copyright 2018 DownloadHD -|- Page Generated In 1.626273 secs.
-|- RSS Feed -|- Feed Info