Login
Username:
Password:
[Signup]
[Recover Account]


Browse Torrents

Poll


You must be logged in to view polls



Latest Torrents
Evil.Lives.Here.S0...
- [Size: 220.93 MB]

Call.The.Midwife.S...
- [Size: 339.36 MB]

Call.The.Midwife.S...
- [Size: 340.85 MB]

Top.Gear.S26E01.RE...
- [Size: 1.41 GB]

Fast.Layne.S01E01....
- [Size: 233.06 MB]


Torrent Details For "Ready ( 2011 ) Hindi 720p Blu-Ray x264 DTS { TaRa }.mkv"

Ready ( 2011 ) Hindi 720p Blu-Ray x264 DTS { TaRa }.mkv

Download this torrent | Magnet Download
Health:
Seeds: 0
Leechers: 4
Completed:
Last Checked: 13-01-2019 00:36:52
External Torrent
Update Stats



Images Host

Poster


Watch-Free-HD     Download

Details
Name:Ready ( 2011 ) Hindi 720p Blu-Ray x264 DTS { TaRa }.mkv
Description:

Quote:

Ready ( 2011 ) Hindi 720p Blu-Ray x264 DTS { TaRa }.mkv


===================================================================
General
Complete name               : Ready ( 2011 ) Hindi 720p Blu-Ray x264 DTS { TaRa }.mkv
Format                      : Matroska
Format version              : Version 4 / Version 2
File size                   : 3.78 GiB
Duration                    : 2 h 25 min
Overall bit rate            : 3 732 kb/s
===================================================================
Video
ID                          : 1
Format                      : AVC
Format/Info                 : Advanced Video Codec
Format profile              : [email protected]
Format settings, CABAC      : Yes
Format settings, ReFrames   : 8 frames
Codec ID                    : V_MPEG4/ISO/AVC
Duration                    : 2 h 25 min
Bit rate                    : 2 691 kb/s
Width                       : 1 280 pixels
Height                      : 544 pixels
Display aspect ratio        : 2.35:1
Frame rate mode             : Constant
Frame rate                  : 24.000 FPS
Color space                 : YUV
Chroma subsampling          : 4:2:0
Bit depth                   : 8 bits
Scan type                   : Progressive
Bits/(Pixel*Frame)          : 0.161
Stream size                 : 2.73 GiB (72%)
Title                       : .....::::: TaRa :::::.....
Language                    : Hindi
Default                     : Yes
Forced                      : No
===================================================================
Audio
ID                          : 2
Format                      : DTS
Format/Info                 : Digital Theater Systems
Mode                        : 16
Format settings, Endianness : Big
Codec ID                    : A_DTS
Duration                    : 2 h 25 min
Bit rate mode               : Constant
Bit rate                    : 1 025 kb/s
Channel(s)                  : 6 channels
Channel positions           : Front: L C R, Side: L R, LFE
Sampling rate               : 44.1 kHz
Frame rate                  : 86.133 FPS (512 spf)
Bit depth                   : 16 bits
Compression mode            : Lossy
Stream size                 : 1.04 GiB (27%)
Title                       : .....::::: TaRa :::::.....
Language                    : Hindi
Default                     : Yes
Forced                      : No
===================================================================
Text
ID                          : 3
Format                      : PGS
Muxing mode                 : zlib
Codec ID                    : S_HDMV/PGS
Codec ID/Info               : Picture based subtitle format used on BDs/HD-DVDs
Duration                    : 2 h 22 min
Bit rate                    : 14.3 kb/s
Count of elements           : 5146
Stream size                 : 14.6 MiB (0%)
Title                       : .....::::: TaRa :::::.....
Language                    : English
Default                     : Yes
Forced                      : No
===================================================================













Category:Movies > Bollywood
Lang:Hindi
Total Size:3.78 GB
Info Hash:b2574c9686f843a63632f3693fe36ab7886f94b2
Added By:SkTaRa
Date Added:27-03-2017 16:49:44
Downloads:623

Ratings:rating: 5.0/5 (5.0 Out Of 5) 2 users have rated this torrent (Log in to rate it)

  


Tracker:
udp://tracker.ccc.de:80/announce

This Torrent also has backup trackers
URLSeedersLeechersCompleted
http://tracker.dler.org:6969/announce000
http://ipv4.tracker.harry.lu:80/announce050


File List: 


Comments

<< Previous      Next >>
1 - 1

[Report] Posted: 23-07-2018 at 15:58:50
Shahzaib1234




1 - 1
<< Previous      Next >>


Top
Copyright 2018 DownloadHD -|- Page Generated In 1.234517 secs.
-|- RSS Feed -|- Feed Info