Login
Username:
Password:
[Signup]
[Recover Account]


Browse Torrents

Poll


You must be logged in to view polls



Latest Torrents
Schooled.S01E06.HD...
- [Size: 163.37 MB]

Slutever.2018.S02E...
- [Size: 116.38 MB]

Ridiculousness.S13...
- [Size: 122.29 MB]

Slutever.2018.S02E...
- [Size: 374.83 MB]

Creed.II.2018.720p...
- [Size: 5.50 GB]


Torrent Details For "Climax Sana Ka (Climax) (2018) Hindi Dubbed 720p HD x264 AAC ESubs [MovCr]"

Climax Sana Ka (Climax) (2018) Hindi Dubbed 720p HD x264 AAC ESubs [MovCr]

Download this torrent | Magnet Download
Health:
Seeds: 0
Leechers: 1
Completed: 223 
Last Checked: 31-12-2018 09:00:30
External Torrent
Update Stats



Images Host

Poster


iMDB
Imdb Picture Title: Climax
Year: 2013
Runtime: 125 minutes
Votes: 26
Rating: 3.7/10
Language: Malayalam
Country: India
All Genres: Drama, Romance
Plot Outline: An actress gains popularity thanks to her sensuous roles in South Indian films which leads both a rich benefactor and his teenage son to become smitten with her.


Director: Anil Kumar

Cast:
Sana Khaan as Supriya
Suresh Krishna as
Subin Sunny as


Watch-Free-HD     Download

Details
Name:Climax Sana Ka (Climax) (2018) Hindi Dubbed 720p HD x264 AAC ESubs [MovCr]
Description:
Visit   www.movcr.com

Climax Sana Ka (Climax) (2018) Hindi Dubbed 720p HD x264 AAC ESubs [MovCr]

 http://www.imdb.com/title/tt6092606/

 

General
Unique ID                   : 259914284478796026871105742820705268418 (0xC389AB9BBDB46414BF667B3CEF2B72C2)
Complete name               : www.MovCr.com-Climax Sana Ka (Climax) (2018) Hindi Dubbed 720p HD x264 AAC ESubs [MovCr].mkv
Format                      : Matroska
Format version              : Version 4 / Version 2
File size                   : 671 MiB
Duration                    : 1 h 51 min
Overall bit rate            : 841 kb/s
Movie name                  : www.MovCr.com
Encoded date                : UTC 2018-05-25 04:42:56
Writing application         : mkvmerge v23.0.0 ('The Bride Said No') 64-bit
Writing library             : libebml v1.3.6 + libmatroska v1.4.9

Video
ID                          : 1
Format                      : AVC
Format/Info                 : Advanced Video Codec
Format profile              : [email protected]
Format settings, CABAC      : Yes
Format settings, ReFrames   : 3 frames
Codec ID                    : V_MPEG4/ISO/AVC
Duration                    : 1 h 51 min
Bit rate                    : 710 kb/s
Width                       : 1 280 pixels
Height                      : 720 pixels
Display aspect ratio        : 16:9
Frame rate mode             : Constant
Frame rate                  : 25.000 FPS
Color space                 : YUV
Chroma subsampling          : 4:2:0
Bit depth                   : 8 bits
Scan type                   : Progressive
Bits/(Pixel*Frame)          : 0.031
Stream size                 : 567 MiB (85%)
Title                       : www.MovCr.com
Default                     : Yes
Forced                      : No
Color range                 : Limited
Color primaries             : BT.709
Transfer characteristics    : BT.709
Matrix coefficients         : BT.709

Audio
ID                          : 2
Format                      : AAC
Format/Info                 : Advanced Audio Codec
Format profile              : LC
Codec ID                    : A_AAC
Duration                    : 1 h 51 min
Bit rate                    : 128 kb/s
Channel(s)                  : 2 channels
Channel positions           : Front: L R
Sampling rate               : 44.1 kHz
Frame rate                  : 43.066 FPS (1024 spf)
Compression mode            : Lossy
Stream size                 : 102 MiB (15%)
Title                       : www.MovCr.com
Language                    : Hindi
Default                     : Yes
Forced                      : No

Text
ID                          : 3
Format                      : UTF-8
Codec ID                    : S_TEXT/UTF8
Codec ID/Info               : UTF-8 Plain Text
Bit rate                    : 0 b/s
Count of elements           : 1
Stream size                 : 17.0 Bytes (0%)
Title                       : www.MovCr.com
Language                    : English
Default                     : Yes
Forced                      : No



 
 
 
 
 
 
Category:Movies > South Dub
Lang:Hindi
Total Size:671.09 MB
Info Hash:fa65b36c3a59db873800068bb3fa32b450fb05e9
Added By:Kingmaker
Date Added:25-05-2018 06:29:34
Downloads:746

Ratings:Not Yet Rated (Log in to rate it)


Tracker:
udp://tracker.openbittorrent.com:80/announce

This Torrent also has backup trackers
URLSeedersLeechersCompleted
http://t.nyaatracker.com:80/announce000
http://asnet.pw:2710/announce000
http://tracker.tfile.co:80/announce000
http://pt.lax.mx:80/announce000
http://tracker.bt-hash.com:443/announce000
http://grifon.info:80/announce000
http://retracker.spark-rostov.ru:80/announce000
http://tr.kxmp.cf:80/announce000
http://tracker.city9x.com:2710/announce0087
http://tracker.tfile.me:80/announce000
http://retracker.telecom.by:80/announce000
http://tracker.electro-torrent.pl:80/announce000
http://open.kickasstracker.com:443/announce000
http://retracker.mgts.by:80/announce000
http://retracker.bashtel.ru:80/announce000
http://tracker.devil-torrents.pl:80/announce000
http://torrentsmd.eu:8080/announce000
http://ns349743.ip-91-121-106.eu:80/announce000
http://torrentsmd.me:8080/announce000
http://agusiq-torrents.pl:6969/announce000
http://fxtt.ru:80/announce000


File List: 


Comments

No comments still posted

Top
Copyright 2018 DownloadHD -|- Page Generated In 0.695269 secs.
-|- RSS Feed -|- Feed Info