Login
Username:
Password:
[Signup]
[Recover Account]


Browse Torrents

Poll


You must be logged in to view polls



Latest Torrents
Kursk.2019.HC.HDRi...
- [Size: 1.05 GB]

Evil.Lives.Here.S0...
- [Size: 220.93 MB]

Call.The.Midwife.S...
- [Size: 339.36 MB]

Call.The.Midwife.S...
- [Size: 340.85 MB]

Top.Gear.S26E01.RE...
- [Size: 1.41 GB]


Torrent Details For "Hulchul (2004) Movie 1080p WebHD AAC Audio-HDprintMovies"

Hulchul (2004) Movie 1080p WebHD AAC Audio-HDprintMovies

Download this torrent | Magnet Download
Health:
Seeds: 0
Leechers: 3
Completed:
Last Checked: 06-02-2019 15:19:45
External Torrent
Update Stats



Images Host

Poster


iMDB
Imdb Picture Title: Hulchul
Year: 2004
Runtime: 149 minutes
Votes: 4923
Rating: 6.9/10
Language: Hindi
Country: India
All Genres: Action, Comedy, Drama, Romance
Plot Outline: Angar Chand lives a wealthy lifestyle in a small town in India along with his wife, Parvati, and four sons, Balram, Kishan, Shakti and Jai. Since Balram is of marriageable age, he arranges his marriage with the daughter of Laxmi Devi, who decides to oppose this marriage. During the wedding ceremony, Laxmi Devi and her sons, Surajbhan, and Pratap forcibly remove their sister and accidentally kill Parvati. They subsequently get their sister married to Kashinath. An enraged Angar hacks Laxmi's husband to death, is arrested and sentenced to 14 years in prison. When he returns he makes it clear that women will not be permitted in his house and forbids his sons to ever marry. Then Jai, who is studying in Lala Lajpatrai Law College meets with Anjali, Laxmi's grand-daughter, who openly admits that she is attracted to him. Jai, at first rejects her, then decides to teach and her family a lesson. Both feign their love for each other, but subsequently admit the truth, and even Anjali admits that... Written by rAjOo ([email protected])


Tagline: it's one crazy love story!
Director: Priyadarshan
Writing By: K.P. Saxena,Siddique,Neeraj Vora,
Produced By: Ganesh Jain,Ratan Jain,Manohar P. Kanungo,
Music: Surendra Singh Sodhi Vidyasagar
Cast:
Akshaye Khanna as Jai A. Chand
Kareena Kapoor as Anjali
Sunil Shetty as Veer 'Veeru'
Paresh Rawal as Kishan A. Chand / Murari
Jackie Shroff as Balram 'Balli' A. Chand
Amrish Puri as Angar Chand
Arshad Warsi as Lucky
Arbaaz Khan as Shakti A. Chand
Lakshmi as Laxmi Devi
Farha Naaz as Gopi M. Chand


Watch-Free-HD     Download

Details
Name:Hulchul (2004) Movie 1080p WebHD AAC Audio-HDprintMovies
Description:


General
Complete name                            : Hulchul (2004) Movie 1080p WebHD AAC Audio-HDprintMovies.mp4
Format                                   : MPEG-4
Format profile                           : Base Media
Codec ID                                 : isom (mp41)
File size                                : 8.33 GiB
Duration                                 : 2 h 26 min
Overall bit rate                         : 8 129 kb/s
ContentType                              : 9
Encoded date                             : UTC 2018-05-30 17:24:20
Tagged date                              : UTC 2018-05-30 17:24:20

Video
ID                                       : 2
Format                                   : AVC
Format/Info                              : Advanced Video Codec
Format profile                           : [email protected]
Format settings                          : 1 Ref Frames
Format settings, CABAC                   : No
Format settings, RefFrames               : 1 frame
Format settings, GOP                     : M=1, N=25
Muxing mode                              : Container [email protected]
Codec ID                                 : avc1
Codec ID/Info                            : Advanced Video Coding
Duration                                 : 2 h 26 min
Bit rate                                 : 7 999 kb/s
Width                                    : 1 920 pixels
Height                                   : 1 080 pixels
Display aspect ratio                     : 16:9
Frame rate mode                          : Constant
Frame rate                               : 25.000 FPS
Color space                              : YUV
Chroma subsampling                       : 4:2:0
Bit depth                                : 8 bits
Scan type                                : Progressive
Bits/(Pixel*Frame)                       : 0.154
Stream size                              : 8.20 GiB (98%)
Writing library                          : P§ Ÿˆ@aôùi
Language                                 : English

Audio
ID                                       : 1
Format                                   : AAC
Format/Info                              : Advanced Audio Codec
Format profile                           : LC
Codec ID                                 : mp4a-40-2
Duration                                 : 2 h 26 min
Bit rate mode                            : Constant
Bit rate                                 : 123 kb/s
Channel(s)                               : 2 channels
Channel positions                        : Front: L R
Sampling rate                            : 48.0 kHz
Frame rate                               : 46.875 FPS (1024 SPF)
Compression mode                         : Lossy
Stream size                              : 129 MiB (2%)
Language                                 : English














Category:Movies > Bollywood
Lang:Hindi
Total Size:8.33 GB
Info Hash:1a739591bb51019bd4a0ff8073e601cbec54eaed
Added By:suman142
Date Added:31-05-2018 17:00:45
Downloads:484

Ratings:Not Yet Rated (Log in to rate it)


Tracker:
udp://tracker.coppersurfer.tk:6969/announce


File List: 


Comments

No comments still posted

Top
Copyright 2018 DownloadHD -|- Page Generated In 3.436175 secs.
-|- RSS Feed -|- Feed Info