Login
Username:
Password:
[Signup]
[Recover Account]


Browse Torrents

Poll


You must be logged in to view polls



Latest Torrents
Burden.of.Truth.S0...
- [Size: 1.97 GB]

Burden.of.Truth.S0...
- [Size: 170.64 MB]

Grown-ish.S02E09.7...
- [Size: 517.32 MB]

Gordon.Ramsays.24....
- [Size: 1.04 GB]

Grown-ish.S02E09.W...
- [Size: 169.74 MB]


Torrent Details For "Kirrak Party (2018) Telugu Proper 1080p WEBHD AAC HC-ESubs 3GB[MovCr]"

Kirrak Party (2018) Telugu Proper 1080p WEBHD AAC HC-ESubs 3GB[MovCr]

Download this torrent | Magnet Download
Health:
Seeds: 0
Leechers: 13
Completed: 30 
Last Checked: 24-06-2018 10:10:48
External Torrent
Update Stats



Images Host

Poster


iMDB
Imdb Picture Title: Kirrak Party
Year: 2018
Runtime: 165 minutes
Votes: 155
Rating: 5.7/10
Language: Telugu
Country: India
All Genres: Comedy
Plot Outline: Krishna a first year student meets Meera a second year student and daughter of a police officer. Everyone in the campus likes Meera and even Krishna's friend. But Meera gets close to ...
Director: Sharan Koppisetty
Writing By: Chandoo Mondeti,Sudheer Varma,
Produced By: Abhishek Agarwal,Krishna kishore Garikipati,Sunkara Ramabrahmam,Ajay Sunkara,Anil Sunkara,
Music: B. Ajaneesh Loknath
Cast:
Nikhil Siddharth as Krishna
Samyuktha Hegde as Satya
Simran Pareenja as Meera Joseph
Sai Suhas as Reddy
Karthik Adusumilli as Vinay
Brahmaji as Pandu
Arohitha Gowda as Vijaya
Hanumanthe Gowda as Srinivasa Murthy
R.J. Hemant as
Raghu Kumar Karumanchi as Warden


Watch-Free-HD     Download

Details
Name:Kirrak Party (2018) Telugu Proper 1080p WEBHD AAC HC-ESubs 3GB[MovCr]
Description:
Visit Our Site  www.movcr.com

 http://www.imdb.com/title/tt7756082/

 

General
Unique ID                   : 161270425703552783151810685555166815754 (0x79538DE01818548E28BC7587C39E260A)
Complete name               : www.MovCr.com-Kirrak Party (2018) Telugu Proper 1080p WEBHD AAC HC-ESubs 3GB[MovCr].mkv
Format                      : Matroska
Format version              : Version 4 / Version 2
File size                   : 2.99 GiB
Duration                    : 2 h 27 min
Overall bit rate            : 2 898 kb/s
Movie name                  : www.MovCr.com
Encoded date                : UTC 2018-06-10 04:34:07
Writing application         : mkvmerge v23.0.0 ('The Bride Said No') 64-bit
Writing library             : libebml v1.3.6 + libmatroska v1.4.9

Video
ID                          : 1
Format                      : AVC
Format/Info                 : Advanced Video Codec
Format profile              : [email protected]
Format settings, CABAC      : Yes
Format settings, ReFrames   : 4 frames
Format settings, GOP        : M=4, N=50
Codec ID                    : V_MPEG4/ISO/AVC
Duration                    : 2 h 27 min
Bit rate                    : 2 769 kb/s
Nominal bit rate            : 3 500 kb/s
Width                       : 1 920 pixels
Height                      : 1 080 pixels
Display aspect ratio        : 16:9
Frame rate mode             : Variable
Frame rate                  : 24.915 FPS
Color space                 : YUV
Chroma subsampling          : 4:2:0
Bit depth                   : 8 bits
Scan type                   : Progressive
Bits/(Pixel*Frame)          : 0.054
Stream size                 : 2.85 GiB (95%)
Title                       : www.MovCr.com
Writing library             : x264 core 148 r2694 3b70645
Encoding settings           : cabac=1 / ref=3 / deblock=1:0:0 / analyse=0x3:0x113 / me=hex / subme=7 / psy=1 / psy_rd=1.00:0.00 / mixed_ref=1 / me_range=16 / chroma_me=1 / trellis=1 / 8x8dct=1 / cqm=0 / deadzone=21,11 / fast_pskip=1 / chroma_qp_offset=-2 / threads=34 / lookahead_threads=5 / sliced_threads=0 / nr=0 / decimate=1 / interlaced=0 / bluray_compat=0 / constrained_intra=0 / bframes=3 / b_pyramid=2 / b_adapt=1 / b_bias=0 / direct=1 / weightb=1 / open_gop=0 / weightp=2 / keyint=50 / keyint_min=26 / scenecut=0 / intra_refresh=0 / rc_lookahead=40 / rc=cbr / mbtree=1 / bitrate=3500 / ratetol=1.0 / qcomp=0.60 / qpmin=0 / qpmax=69 / qpstep=4 / vbv_maxrate=3500 / vbv_bufsize=3500 / nal_hrd=none / filler=0 / ip_ratio=1.40 / aq=1:1.00
Default                     : Yes
Forced                      : No

Audio
ID                          : 2
Format                      : AAC
Format/Info                 : Advanced Audio Codec
Format profile              : LC
Codec ID                    : A_AAC
Duration                    : 2 h 27 min
Bit rate                    : 132 kb/s
Channel(s)                  : 2 channels
Channel positions           : Front: L R
Sampling rate               : 48.0 kHz
Frame rate                  : 46.875 FPS (1024 spf)
Compression mode            : Lossy
Delay relative to video     : -80 ms
Stream size                 : 138 MiB (5%)
Title                       : www.MovCr.com
Language                    : Telugu
Default                     : Yes
Forced                      : No



 
 
 
 
 
 
 
Category:Movies > Telugu
Lang:Telugu
Total Size:2.99 GB
Info Hash:c3a8a95fcaf3e36e20205bdfb41d6ec78bfdf050
Added By:Kingmaker
Date Added:10-06-2018 05:58:47
Downloads:136

Ratings:Not Yet Rated (Log in to rate it)


Tracker:
udp://tracker.openbittorrent.com:80/announce

This Torrent also has backup trackers
URLSeedersLeechersCompleted
http://share.camoe.cn:8080/announce000
http://t.nyaatracker.com:80/announce000
http://asnet.pw:2710/announce000
http://tracker.tfile.co:80/announce000
http://pt.lax.mx:80/announce000


File List: 


Comments

No comments still posted

Top
Copyright 2018 DownloadHD -|- Page Generated In 1.179049 secs.
-|- RSS Feed -|- Feed Info