Login
Username:
Password:
[Signup]
[Recover Account]


Browse Torrents

Poll


You must be logged in to view polls



Latest Torrents
Suspiria 2018 1080...
- [Size: 4.40 GB]

Bohemian Rhapsody ...
- [Size: 4.41 GB]

The.Kitchen.S20E02...
- [Size: 687.61 MB]

What Men Want (201...
- [Size: 851.39 MB]

What Men Want 2019...
- [Size: 680.15 MB]


Torrent Details For "Hulk 2003 1080p BluRay x264 AAC 5.1 Esub - Download"

Hulk 2003 1080p BluRay x264 AAC 5.1 Esub - Download

Download this torrent | Magnet Download
Health:
Seeds: 0
Leechers: 4
Completed:
Last Checked: 07-02-2019 09:54:07
External Torrent
Update Stats



Images Host

Poster


Watch-Free-HD     Download

Details
Name:Hulk 2003 1080p BluRay x264 AAC 5.1 Esub - Download
Description:


Hulk 2003 1080p BluRay x264 AAC 5.1 Esub - Download

Source: Remux @ FGT

Format                                   : Matroska
Format version                           : Version 4 / Version 2
File size                                : 2.17 GiB
Duration                                 : 2 h 18 min
Overall bit rate                         : 2 244 kb/s
Movie name                               : Hulk 2003- [email protected]


Video
ID                                       : 1
Format                                   : AVC
Format/Info                              : Advanced Video Codec
Format profile                           : [email protected]
Format settings, CABAC                   : Yes
Format settings, ReFrames                : 4 frames
Codec ID                                 : V_MPEG4/ISO/AVC
Duration                                 : 2 h 18 min
Bit rate                                 : 2 050 kb/s
Width                                    : 1 920 pixels
Height                                   : 1 040 pixels
Display aspect ratio                     : 1.85:1
Frame rate mode                          : Constant
Frame rate                               : 23.976 (24000/1001) FPS


Audio
ID                                       : 2
Format                                   : AAC
Format/Info                              : Advanced Audio Codec
Format profile                           : LC
Codec ID                                 : A_AAC
Duration                                 : 2 h 18 min
Bit rate                                 : 192 kb/s
Channel(s)                               : 6 channels
Channel positions                        : Front: L C R, Side: L R, LFE
Sampling rate                            : 48.0 kHz
Frame rate                               : 46.875 FPS (1024 spf)
Compression mode                         : Lossy
Delay relative to video                  : 9 ms
Stream size                              : 189 MiB (9%)
Language                                 : English
Default                                  : Yes
Forced                                   : No

Text
ID                                       : 3
Format                                   : UTF-8
Codec ID                                 : S_TEXT/UTF8
Codec ID/Info                            : UTF-8 Plain Text
Duration                                 : 2 h 13 min
Bit rate                                 : 39 b/s
Count of elements                        : 1254
Stream size                              : 38.3 KiB (0%)
Language                                 : English
Default                                  : Yes
Forced                                   : No

Menu
00:00:00.000                             : en:Chapter 01
00:04:20.301                             : en:Chapter 02
00:11:21.681                             : en:Chapter 03
00:13:55.292                             : en:Chapter 04
00:17:24.376                             : en:Chapter 05
00:20:12.961                             : en:Chapter 06
00:22:50.619                             : en:Chapter 07
00:29:16.880                             : en:Chapter 08
00:32:37.956                             : en:Chapter 09
00:37:03.137                             : en:Chapter 10
00:39:24.945                             : en:Chapter 11
00:45:12.710                             : en:Chapter 12
00:49:00.896                             : en:Chapter 13
00:54:11.289                             : en:Chapter 14
00:57:39.831                             : en:Chapter 15
00:59:53.047                             : en:Chapter 16
01:11:14.853                             : en:Chapter 17
01:16:10.357                             : en:Chapter 18
01:19:14.416                             : en:Chapter 19
01:24:54.714                             : en:Chapter 20
01:27:20.610                             : en:Chapter 21
01:32:04.519                             : en:Chapter 22
01:36:14.685                             : en:Chapter 23
01:41:42.304                             : en:Chapter 24
01:47:10.465                             : en:Chapter 25
01:49:48.873                             : en:Chapter 26
01:55:37.055                             : en:Chapter 27
02:02:55.910                             : en:Chapter 28
02:07:34.313                             : en:Chapter 29
02:08:31.245                             : en:Chapter 30
02:11:06.984                             : en:Chapter 31
02:12:41.536                             : en:Chapter 32

               
Category:Movies > 1080P Bluray
Lang:English  English
Total Size:2.17 GB
Info Hash:92f6ea2ebe71939c5c52539a229d0f231318af18
Added By:Unknown
Date Added:20-06-2017 21:44:30
Downloads:202

Ratings:Not Yet Rated (Log in to rate it)


Tracker:
udp://tracker.coppersurfer.tk:6969/announce


File List: 


Comments

No comments still posted

Top
Copyright 2018 DownloadHD -|- Page Generated In 1.238298 secs.
-|- RSS Feed -|- Feed Info