Login
Username:
Password:
[Signup]
[Recover Account]


Browse Torrents

Poll


You must be logged in to view polls



Latest Torrents
Baptiste.S01E01.HD...
- [Size: 274.53 MB]

Kursk.2019.HC.HDRi...
- [Size: 1.05 GB]

Evil.Lives.Here.S0...
- [Size: 220.93 MB]

Call.The.Midwife.S...
- [Size: 339.36 MB]

Call.The.Midwife.S...
- [Size: 340.85 MB]


Torrent Details For "The Pacifier 2005 720p BluRay x264 AAC 5.1- Download"

The Pacifier 2005 720p BluRay x264 AAC 5.1- Download

Download this torrent | Magnet Download
Health:
Seeds: 0
Leechers: 6
Completed:
Last Checked: 11-02-2019 11:37:39
External Torrent
Update Stats



Images Host

Poster


Watch-Free-HD     Download

Details
Name:The Pacifier 2005 720p BluRay x264 AAC 5.1- Download
Description:




The Pacifier 2005 720p BluRay x264 AAC 5.1- Download


Format                                   : Matroska
Format version                           : Version 4 / Version 2
File size                                : 882 MiB
Duration                                 : 1 h 35 min
Overall bit rate                         : 1 293 kb/s
Movie name                               : [email protected] @ Download


Video
ID                                       : 1
Format                                   : AVC
Format/Info                              : Advanced Video Codec
Format profile                           : [email protected]
Format settings, CABAC                   : Yes
Format settings, ReFrames                : 8 frames
Codec ID                                 : V_MPEG4/ISO/AVC
Duration                                 : 1 h 35 min
Bit rate                                 : 1 100 kb/s
Width                                    : 1 280 pixels
Height                                   : 536 pixels
Display aspect ratio                     : 2.40:1
Frame rate mode                          : Constant
Frame rate                               : 23.976 (24000/1001) FPS


Audio
ID                                       : 2
Format                                   : AAC
Format/Info                              : Advanced Audio Codec
Format profile                           : LC
Codec ID                                 : A_AAC
Duration                                 : 1 h 35 min
Bit rate                                 : 192 kb/s
Channel(s)                               : 6 channels
Channel positions                        : Front: L C R, Side: L R, LFE
Sampling rate                            : 48.0 kHz
Frame rate                               : 46.875 FPS (1024 spf)
Compression mode                         : Lossy
Delay relative to video                  : 9 ms
Stream size                              : 131 MiB (15%)
Language                                 : English
Default                                  : Yes
Forced                                   : No

Text
ID                                       : 3
Format                                   : UTF-8
Codec ID                                 : S_TEXT/UTF8
Codec ID/Info                            : UTF-8 Plain Text
Duration                                 : 1 h 29 min
Bit rate                                 : 56 b/s
Count of elements                        : 1122
Stream size                              : 37.2 KiB (0%)
Language                                 : English
Default                                  : Yes
Forced                                   : No

Menu
00:00:00.000                             : en:Chapter 01
00:06:02.737                             : en:Chapter 02
00:15:39.188                             : en:Chapter 03
00:20:49.289                             : en:Chapter 04
00:25:05.128                             : en:Chapter 05
00:33:03.648                             : en:Chapter 06
00:36:11.836                             : en:Chapter 07
00:41:02.626                             : en:Chapter 08
00:46:39.213                             : en:Chapter 09
00:53:54.439                             : en:Chapter 10
00:57:30.405                             : en:Chapter 11
01:01:50.998                             : en:Chapter 12
01:09:55.316                             : en:Chapter 13
01:19:56.458                             : en:Chapter 14
01:25:33.837                             : en:Chapter 15
01:29:53.805                             : en:Chapter 16
01:35:19.630                             : en:Chapter 17

       
Category:Movies > 720P Bluray
Lang:English  English
Total Size:881.97 MB
Info Hash:fa26d4c59c171068e5f8daec8474c40900fd4675
Added By:Unknown
Date Added:20-06-2017 23:00:08
Downloads:115

Ratings:Not Yet Rated (Log in to rate it)


Tracker:
udp://tracker.coppersurfer.tk:6969/announce


File List: 


Comments

No comments still posted

Top
Copyright 2018 DownloadHD -|- Page Generated In 0.993754 secs.
-|- RSS Feed -|- Feed Info